<?xml version="1.0" standalone="no"?>
<!DOCTYPE svg PUBLIC "-//W3C//DTD SVG 1.1//EN" "http://www.w3.org/Graphics/SVG/1.1/DTD/svg11.dtd" >
<svg xmlns="http://www.w3.org/2000/svg">
<metadata>Generated by IcoMoon</metadata>
<defs>
<font id="icomoon" horiz-adv-x="1024">
<font-face units-per-em="1024" ascent="960" descent="-64" />
<missing-glyph horiz-adv-x="1024" />
<glyph unicode="&#x20;" horiz-adv-x="512" d="" />
<glyph unicode="&#xe900;" glyph-name="compare-pro" d="M320.517 136.668h101.816v-60h-101.816zM320.517 819.332h101.816v-60h-101.816zM0 498.357h60v-100.718h-60zM0 337.637h60v-100.72h-60zM160.702 136.668h99.816v-60h-99.816zM60 136.668v40.25h-60v-100.25h100.702v60zM160.702 819.332h99.816v-60h-99.816zM60 759.332h40.702v60h-100.702v-100.258h60zM0 659.075h60v-100.718h-60zM1024 819.332h-481.999v79.668h-60v-901.998h60v79.666h481.999zM964 136.668h-421.999v622.665h421.999z" />
<glyph unicode="&#xe901;" glyph-name="edit" d="M1017 828.638c0 0.045 0 0.097 0 0.15 0 72.549-58.813 131.362-131.362 131.362-36.312 0-69.183-14.734-92.96-38.549l-616.042-616.032c-3.947-3.948-6.868-8.923-8.328-14.489l-0.050-0.223-51.158-200.372c-0.632-2.376-0.995-5.104-0.995-7.917 0-17.673 14.327-32 32-32 3.394 0 6.664 0.528 9.733 1.507l-0.227-0.062 191.846 59.686c5.148 1.633 9.553 4.362 13.12 7.928l616.040 616.038c23.712 23.641 38.383 56.339 38.383 92.463 0 0.179 0 0.358-0.001 0.536v-0.028zM322.906 170.466l-129.628-40.33 34.82 136.386 539.102 539.104 95.436-95.426zM933.364 780.92l-25.474-25.472-95.432 95.434 25.472 25.472c12.212 12.212 29.082 19.765 47.717 19.765 37.269 0 67.482-30.213 67.482-67.482 0-18.635-7.553-35.505-19.765-47.717v0zM698.754-64h-659.754c-17.673 0-32 14.327-32 32s14.327 32 32 32v0h659.754c17.673 0 32-14.327 32-32s-14.327-32-32-32v0z" />
<glyph unicode="&#xe902;" glyph-name="heart-edit" d="M296.96 858.325c-2.347-0.384-10.027-1.579-17.067-2.603-74.965-10.795-144.939-57.941-187.093-126.123-16.213-26.24-30.421-64.683-35.669-96.384-4.48-27.349-3.669-80.853 1.835-117.589 9.445-60.098 27.905-114.141 54.13-163.423l-1.352 2.783c35.925-68.565 86.101-130.432 151.083-186.197 59.477-51.072 138.923-99.712 200.064-122.496 22.315-8.32 31.275-10.027 49.109-9.344 12.075 0.469 16.085 1.323 19.925 4.181 8.149 6.101 11.307 13.355 11.307 26.069 0 22.101-7.979 30.293-31.659 32.597-34.432 3.328-108.629 41.728-171.093 88.533-78.933 59.179-139.051 129.237-176.64 205.909-30.635 62.464-43.563 113.579-45.525 180.053-0.768 26.709-0.384 36.48 1.877 49.493 7.708 44.098 28.504 82.392 58.178 111.725l0.019 0.019c36.651 37.081 87.514 60.045 143.74 60.045 28.513 0 55.647-5.906 80.245-16.561l-1.308 0.504c32.896-14.037 54.443-30.379 82.645-62.677 15.275-17.493 29.141-22.144 42.197-14.123 3.413 2.133 10.923 9.472 16.64 16.384 32.171 38.699 73.941 64.085 119.467 72.619 68.395 12.843 134.955-7.509 183.595-56.192 29.491-29.139 50.18-67.126 57.758-109.651l0.183-1.24c4.992-28.629 2.816-79.36-5.12-119.467-1.451-7.509-5.376-23.595-8.704-35.797-6.571-24.192-6.741-31.488-0.725-39.936 7.595-10.624 31.531-17.152 42.453-11.52 9.003 4.651 13.44 12.544 19.755 35.2 11.689 39.407 18.416 84.684 18.416 131.532 0 14.678-0.66 29.202-1.953 43.544l0.134-1.849c-15.659 108.075-91.392 194.432-195.84 223.36-26.325 7.296-38.827 8.747-73.088 8.619-26.539-0.085-35.584-0.768-49.664-3.797-48.138-10.489-90.144-32.046-124.779-61.917l0.363 0.306c-3.858-3.592-8.033-6.995-12.424-10.114l-0.376-0.254c-0.469 0-6.229 4.651-12.8 10.283-34.034 29.368-75.702 50.845-121.606 61.089l-1.871 0.351c-15.829 3.371-67.499 6.016-78.763 4.053zM840.96 339.883c-8.901-3.426-16.564-7.444-23.679-12.215l0.425 0.269c-15.189-10.368-176.555-171.776-183.253-183.339-6.912-11.819-9.301-21.205-14.251-56.533-6.997-49.621-4.565-64.427 13.269-81.493 17.493-16.768 30.933-18.731 80.469-11.776 34.005 4.736 43.392 7.125 55.765 14.123 4.395 2.475 36.309 32.555 74.24 69.931l69.589 68.48c12.032 11.435 36.395 39.296 42.112 48.171 8.674 12.94 13.844 28.863 13.844 45.994 0 17.185-5.202 33.156-14.118 46.422l0.189-0.299c-15.403 23.851-42.411 46.123-64.085 52.821-7.291 2.205-15.669 3.474-24.344 3.474-9.347 0-18.35-1.473-26.789-4.2l0.616 0.172zM876.885 277.504c7.296-3.712 22.528-19.2 26.581-27.051 1.455-2.721 2.443-5.906 2.765-9.285l0.008-0.102c0-5.12-7.893-17.365-16.512-25.6l-6.699-6.4-8.448 5.291c-13.275 8.91-24.395 19.894-33.182 32.613l-0.269 0.411-6.656 10.112 8.149 8.363c8.917 9.131 17.963 14.677 24.021 14.805 3.809-0.422 7.276-1.541 10.388-3.231l-0.148 0.074zM792.576 205.483c4.693-7.936 24.192-28.032 34.091-35.157l9.515-6.869c1.067-0.811-95.445-97.493-99.584-99.755-3.2-1.749-55.125-9.899-56.192-8.789-0.341 0.299 1.237 13.013 3.413 28.288l4.011 27.733 49.877 49.92c16.55 16.837 33.107 33.111 49.941 49.096l0.875 0.824c0.512 0 2.347-2.389 4.053-5.291z" />
<glyph unicode="&#xe903;" glyph-name="arrow-right" d="M410.709 702.080c-8.789-4.651-20.48-16.555-25.088-25.557-2.294-4.439-3.639-9.69-3.639-15.255 0-5.631 1.377-10.94 3.813-15.609l-0.089 0.187c2.603-5.248 32.896-36.736 98.688-102.699l94.933-95.147-94.933-95.147c-65.792-65.963-96.085-97.451-98.688-102.699-7.552-15.061-3.755-30.592 11.051-45.397 14.763-14.763 30.336-18.603 45.397-11.093 10.667 5.333 233.515 228.181 238.848 238.848 2.32 4.509 3.68 9.84 3.68 15.488s-1.36 10.979-3.77 15.682l0.090-0.194c-5.163 10.325-228.181 233.515-238.464 238.635-4.653 2.21-10.11 3.501-15.869 3.501-5.794 0-11.283-1.307-16.189-3.641l0.228 0.098z" />
<glyph unicode="&#xe904;" glyph-name="filter-outline" d="M159.573 862.592c-28.715-1.451-40.533-4.053-58.325-12.715-21.333-10.411-35.669-28.885-42.411-54.571-4.608-17.621-6.315-53.376-5.419-113.493 0.981-63.744 2.091-72.107 12.288-93.611 7.083-14.891 23.936-32.683 42.667-44.971 6.571-4.309 47.659-27.947 91.307-52.523 95.957-54.016 109.269-61.781 120.533-70.144 9.856-7.296 20.693-22.4 26.496-37.035 3.925-9.728 3.925-10.411 4.992-116.437 0.939-90.837 1.493-108.245 3.883-117.333 8.192-31.317 26.069-49.749 64.341-66.219 42.539-18.261 111.957-43.221 133.035-47.829 18.091-3.925 44.16-3.712 57.344 0.555 21.495 7.171 38.566 22.601 47.752 42.428l0.206 0.494c11.989 26.923 14.037 54.229 14.123 188.245 0.043 63.829 0.683 99.84 1.92 105.813 2.944 14.080 11.093 29.525 20.821 39.424 10.965 11.136 15.915 14.165 121.6 73.728 52.675 28.842 84.742 47.545 116.526 66.67l-18.393-10.264c19.413 12.672 36.224 30.251 43.435 45.397 10.197 21.504 11.307 29.867 12.288 93.611 0.896 60.117-0.811 95.872-5.419 113.493-6.741 25.685-21.077 44.16-42.411 54.571-18.176 8.875-29.397 11.136-63.445 12.885-36.608 1.835-662.869 1.707-699.733-0.171zM886.912 796.373c4.052-1.275 7.571-3.153 10.656-5.56l-0.074 0.056c7.296-6.784 7.893-13.696 7.893-90.283 0-66.133-0.256-73.259-3.115-80.597-5.888-15.232-7.339-16.213-132.565-86.699-85.12-47.957-101.675-58.069-115.541-70.613-19.328-17.451-34.56-43.52-41.685-71.168-3.541-13.781-3.712-19.2-4.992-138.923-0.811-78.080-1.963-127.659-3.115-132.779-2.731-12.203-6.997-20.053-11.989-21.973-6.955-2.731-25.088-0.469-43.691 5.504-32.896 10.496-102.955 37.717-117.461 45.611-14.677 7.979-13.824 0.939-14.976 121.557-0.939 100.651-1.195 107.392-4.523 119.509-10.795 39.424-31.189 68.053-63.573 89.131-7.979 5.205-53.291 31.317-100.693 58.069-102.315 57.643-105.259 59.435-114.944 67.925-13.696 12.032-13.739 12.416-14.421 85.931-0.597 63.403 0.555 85.803 4.949 95.403 2.603 5.675 10.88 9.557 24.192 11.307 5.845 0.768 173.056 1.28 371.584 1.109 293.248-0.213 362.283-0.725 368.085-2.517z" />
<glyph unicode="&#xe905;" glyph-name="trash-1" d="M490.027 905.173c-17.152-1.963-43.477-11.264-60.288-21.333-16.341-9.728-41.899-34.048-51.755-49.28-11.648-17.92-18.731-36.053-18.731-48.085 0-12.843 3.413-18.219 15.488-24.448 6.443-3.285 10.88-4.267 19.797-4.267 10.624 0 11.861 0.384 17.237 5.589 3.157 3.072 7.552 9.984 9.728 15.36 6.613 16.299 15.061 28.8 26.155 38.699 50.901 45.397 127.872 26.837 154.155-37.205 2.517-6.187 7.211-13.739 10.411-16.811 5.376-5.248 6.613-5.632 17.195-5.632 13.653 0 25.557 5.035 31.488 13.355 8.405 11.819 2.603 36.565-14.891 63.445-10.155 15.659-35.413 39.552-52.181 49.451-17.917 10.521-38.912 18.020-61.301 21.186l-0.907 0.105c-6.121 0.937-13.182 1.472-20.369 1.472-7.493 0-14.85-0.582-22.029-1.703l0.798 0.103zM139.392 734.805c-15.36-3.029-22.059-13.355-21.291-32.811 0.597-14.72 3.413-20.224 13.483-26.155 5.76-3.371 8.875-3.413 380.416-3.413s374.656 0.043 380.416 3.413c10.709 6.315 12.971 11.179 12.971 28.16s-2.261 21.845-12.971 28.16c-5.76 3.371-9.088 3.413-376.149 3.669-203.691 0.128-373.291-0.341-376.875-1.024zM203.648 625.579c-8.021-3.627-12.16-8.96-14.293-18.347-0.981-4.309 2.219-61.227 9.557-171.136 13.824-207.189 17.323-247.381 23.893-275.755 16.341-70.485 52.437-107.051 119.381-120.917 28.075-5.845 54.613-6.912 169.813-6.912s141.739 1.067 169.813 6.912c65.067 13.483 101.333 48.768 117.589 114.389 8.448 34.048 11.008 62.037 25.685 282.283 7.339 109.909 10.539 166.827 9.557 171.136-3.243 14.336-13.696 21.589-31.275 21.632-16.768 0.085-26.539-6.485-30.165-20.224-0.896-3.413-6.272-76.459-11.947-162.347-14.805-223.147-18.048-259.072-25.984-284.672-13.653-44.288-36.565-58.923-99.584-63.445-30.933-2.219-216.448-2.219-247.381 0-63.019 4.523-85.931 19.157-99.584 63.445-7.979 25.771-10.624 54.784-25.088 271.872-6.187 92.928-11.947 171.733-12.843 175.147-1.994 7.989-7.367 14.439-14.473 17.85l-0.161 0.070c-8.107 3.371-24.021 2.901-32.512-0.981zM395.349 521.301c-14.677-3.669-21.589-13.056-21.589-29.312 0-4.949 4.949-57.941 10.965-117.76 9.728-96.427 11.349-109.483 14.677-115.328 6.827-12.245 20.992-16.555 37.931-11.648 11.307 3.285 19.157 11.221 20.821 20.992 0.64 3.797-3.584 53.248-10.155 119.168-12.373 123.563-12.501 124.373-24.149 131.029-6.571 3.755-19.669 5.077-28.501 2.859zM605.44 520.747c-17.067-6.357-16.299-2.816-29.44-134.101-6.229-62.336-10.88-115.925-10.283-119.083 3.413-18.304 32.512-28.672 50.56-18.005 10.923 6.443 11.307 8.448 23.168 125.653 6.016 59.264 10.709 112.939 10.411 119.253-0.64 13.056-3.925 18.859-13.355 23.765-8.235 4.267-23.168 5.461-31.061 2.517z" />
<glyph unicode="&#xe906;" glyph-name="minus" d="M213.333 448v-42.667h597.333v85.333h-597.333v-42.667z" />
<glyph unicode="&#xe907;" glyph-name="plus" d="M469.333 618.667v-128h-256v-85.333h256v-256h85.333v256h256v85.333h-256v256h-85.333v-128z" />
<glyph unicode="&#xe908;" glyph-name="mobile" d="M400.213 905.259c-112.768-3.2-164.096-18.645-204.885-61.611-32.341-34.005-46.507-74.155-53.845-152.448-1.237-13.099-2.219-89.728-2.731-212.48-0.768-186.581 0.299-253.355 4.651-292.693 7.168-64.384 22.613-103.509 53.547-135.424 34.432-35.584 78.464-51.627 160.597-58.624 35.712-3.029 273.195-3.029 308.907 0 82.133 6.997 126.165 23.040 160.597 58.624 33.92 35.029 48.768 77.056 55.68 157.611 3.115 36.651 3.115 442.923 0 479.573-6.869 79.787-21.76 122.411-54.784 156.757-31.659 32.896-70.016 48.853-135.893 56.619-43.691 5.163-185.344 7.125-291.84 4.096zM645.973 840.491c74.667-4.053 108.971-14.080 134.016-39.168 25.088-25.045 35.115-59.349 39.168-134.016 2.176-39.936 2.176-398.677 0-438.613-4.053-74.837-13.995-108.757-39.381-134.4-19.669-19.84-47.659-30.379-97.493-36.608-21.717-2.731-40.277-3.072-170.283-3.072s-148.565 0.341-170.283 3.072c-49.835 6.229-77.824 16.768-97.493 36.608-25.387 25.643-35.328 59.563-39.381 134.4-2.176 39.936-2.176 398.677 0 438.613 4.053 74.624 14.165 109.44 38.997 134.016 24.789 24.491 60.459 35.285 129.323 39.040 36.736 2.005 236.715 2.091 272.811 0.128zM375.424 180.224c-15.744-3.157-22.869-12.757-22.955-30.891-0.043-14.165 4.309-23.125 13.739-28.032 6.613-3.499 8.576-3.541 145.792-3.541s139.179 0.043 145.792 3.541c9.429 4.907 13.781 13.867 13.739 28.032-0.085 14.293-3.797 22.059-13.227 27.435l-7.211 4.139-134.827 0.256c-74.155 0.128-137.515-0.299-140.843-0.939z" />
<glyph unicode="&#xe909;" glyph-name="star" d="M499.456 905.216c-22.912-3.328-50.261-22.912-70.955-50.859-11.691-15.787-36.309-56.619-64.896-107.691-28.8-51.371-38.059-65.792-44.203-68.949-6.784-3.499-24.704-8.192-82.176-21.419-105.003-24.192-133.632-35.029-158.592-59.947-18.859-18.859-28.117-46.037-24.192-71.168 5.803-37.547 23.168-64.213 102.528-157.397 48.341-56.789 49.536-58.624 49.536-75.52 0-5.931-1.579-27.264-3.456-47.403-13.013-137.131-13.013-167.253-0.043-200.875 14.891-38.613 51.371-59.221 94.421-53.291 29.867 4.053 67.2 18.347 158.251 60.459 35.285 16.299 48.64 21.376 56.32 21.376 8.064 0 20.395-4.821 65.707-25.6 100.181-45.995 131.157-56.832 162.133-56.789 27.264 0.085 44.629 6.741 61.653 23.723 12.288 12.245 19.328 25.685 24.917 47.787 3.413 13.44 3.84 19.115 3.669 50.133-0.171 33.664-1.323 50.688-9.301 134.827-1.963 21.12-3.328 43.435-2.987 49.579 0.555 10.112 1.365 12.245 8.533 22.187 4.352 6.059 22.315 27.904 39.893 48.555 68.096 80 85.931 104.704 97.109 134.4 19.115 50.859-1.963 96.256-56.149 120.832-21.547 9.771-59.776 20.48-130.645 36.608-46.72 10.624-65.237 15.488-71.936 18.944-6.144 3.157-15.403 17.579-44.203 68.949-28.501 50.901-53.205 91.904-64.768 107.52-10.453 14.080-30.933 33.877-41.259 39.893-12.367 7.5-27.313 11.938-43.296 11.938-4.097 0-8.126-0.292-12.067-0.855l0.451 0.053zM520.192 839.808c2.517-1.323 8.533-6.528 13.355-11.52 14.251-14.805 30.123-40.235 74.923-120.021 14.763-26.283 28.416-50.091 30.336-52.907 13.568-19.84 29.44-32.939 48.725-40.235 5.291-2.005 34.219-9.344 64.256-16.299 100.011-23.168 124.331-30.421 141.824-42.496 10.453-7.211 13.483-13.227 12.032-23.893-2.645-19.413-20.309-44.075-92.331-128.811-39.979-47.061-50.603-61.995-55.637-78.293-5.931-19.115-5.845-33.152 0.853-104.32 11.52-122.581 10.24-156.373-6.272-164.864-15.403-7.979-46.379 2.389-153.216 51.371-58.88 26.965-64.597 28.885-87.040 28.885s-28.16-1.92-87.040-28.885c-84.437-38.699-117.504-51.584-136.619-53.248-26.325-2.261-31.957 10.496-30.080 68.352 0.981 31.616 1.792 41.771 9.771 126.549 4.053 43.179 3.712 58.624-1.664 75.947-5.163 16.469-16.256 32.085-56.405 79.36-72.149 84.949-88.917 108.373-91.605 127.957-1.536 11.093 1.579 16.853 13.269 24.661 16.469 10.965 38.229 17.835 109.099 34.261 103.125 23.936 110.251 26.411 128 44.245 12.843 12.885 15.915 17.664 46.805 72.661 52.992 94.293 68.437 117.845 85.077 129.28 7.595 5.248 12.8 5.845 19.584 2.261z" />
<glyph unicode="&#xe90a;" glyph-name="clock" d="M490.667 905.984c-151.227-7.512-282.424-86.95-360.887-204.571l-1.054-1.679c-36.779-55.893-60.245-117.803-70.955-187.221-5.376-34.944-5.376-94.080 0-129.024 15.659-101.589 59.392-188.757 130.176-259.541 50.054-50.49 111.907-89.2 181.084-111.658l3.193-0.896c21.415-7.434 46.817-13.589 72.991-17.353l2.273-0.268c34.944-5.376 94.080-5.376 129.024 0 41.429 6.4 76.971 16.341 114.475 32.043 107.605 45.099 198.101 135.595 243.2 243.2 25.088 59.947 35.883 113.621 35.883 178.987s-10.795 119.040-35.883 178.987c-53.077 126.677-162.816 223.403-297.472 262.144-38.245 10.926-82.17 17.208-127.563 17.208-6.501 0-12.972-0.129-19.41-0.384l0.925 0.029zM551.509 840.491c138.039-14.424 253.703-98.141 312.694-215.292l1.034-2.265c19.328-39.381 29.952-72.619 37.035-116.053 4.309-26.496 4.309-91.264 0-117.76-14.251-87.211-52.096-160.981-114.091-222.251-28.675-28.97-62.129-53.139-99.096-71.24l-2.152-0.952c-33.28-17.134-71.906-30.048-112.639-36.688l-2.262-0.304c-25.899-4.352-94.165-4.352-120.064 0-42.996 6.944-81.622 19.858-117.116 38.021l2.215-1.029c-74.822 37.563-134.565 95.81-172.961 167.239l-1.034 2.105c-28.643 53.338-45.472 116.703-45.472 183.999 0 94.405 33.118 181.075 88.369 249.026l-0.572-0.726c18.559 21.696 38.177 41.233 59.244 59.116l0.745 0.617c58.069 46.293 132.309 76.928 203.947 84.267 20.821 2.133 61.611 2.219 82.176 0.171zM503.424 649.557c-9.045-1.835-16.64-7.040-19.968-13.739-2.773-5.547-3.072-14.123-3.499-97.835-0.341-63.403 0.085-93.995 1.408-98.987 1.664-6.272 9.515-14.848 61.013-66.517 32.512-32.597 61.739-60.544 64.981-62.037 3.274-1.366 7.079-2.16 11.068-2.16 6.448 0 12.413 2.073 17.262 5.59l-0.085-0.059c13.099 9.984 18.091 21.077 15.573 34.688-1.067 5.632-8.021 13.312-53.931 59.392l-52.693 52.907-0.512 84.48c-0.427 77.099-0.725 85.035-3.499 90.581-5.248 10.496-22.016 16.683-37.12 13.696z" />
<glyph unicode="&#xe90b;" glyph-name="question" d="M383.147 905.301c-123.477-2.859-180.992-14.933-231.168-48.555-26.069-17.493-52.181-48.512-65.579-77.952-16.768-36.736-25.429-79.189-30.421-149.035-3.072-42.923-3.072-320.597 0-363.52 7.637-106.88 26.155-161.451 69.504-204.757 43.307-43.307 97.408-61.696 204.757-69.461 43.093-3.157 320.427-3.157 363.52 0 107.648 7.808 161.067 25.941 204.672 69.547s61.739 97.024 69.547 204.672c3.157 43.093 3.157 320.427 0 363.52-7.68 105.771-25.643 159.829-67.2 202.368-41.429 42.368-91.947 61.483-184.832 69.888-47.829 4.352-215.168 5.973-332.8 3.285zM669.867 840.533c93.611-4.48 139.776-15.488 171.861-41.045 42.112-33.536 57.515-81.024 62.763-193.621 2.261-48.597 2.261-267.136 0-315.733-5.163-110.891-20.736-159.957-60.971-192.213-29.611-23.765-65.963-34.517-138.667-41.088-35.285-3.157-350.421-3.157-385.707 0-87.765 7.936-128.341 23.467-157.781 60.373-26.496 33.28-37.419 78.251-41.856 172.075-2.261 47.531-2.261 269.909 0 317.44 4.395 92.971 15.104 137.6 41.131 171.307 31.104 40.32 81.749 57.216 186.667 62.293 42.283 2.048 280.619 2.219 322.56 0.213zM495.317 691.883c-13.653-2.048-30.165-8.064-42.325-15.403-11.648-6.997-31.104-27.093-38.229-39.381-13.397-23.253-18.901-59.648-11.051-73.045 7.083-12.032 21.291-17.195 37.547-13.611 15.403 3.371 20.821 10.752 22.912 31.232 1.664 16.085 4.096 21.973 13.269 32.085 9.984 11.093 17.621 14.251 34.56 14.293 12.757 0 15.445-0.555 22.485-4.693 21.035-12.373 29.824-34.688 22.528-57.301-3.84-11.861-10.283-18.987-27.989-31.147-17.536-11.989-33.92-28.715-40.107-40.875-7.936-15.701-9.643-28.032-9.045-65.621 0.64-39.381 2.133-44.757 14.336-51.115 9.216-4.864 26.368-4.864 35.584 0 12.16 6.357 13.653 11.648 14.635 52.267l0.853 35.285 5.12 5.419c2.816 2.987 11.691 9.856 19.755 15.317 35.925 24.277 53.632 56.533 53.376 97.237-0.085 14.976-0.896 20.267-4.864 32.128-12.629 37.376-41.344 64.768-77.867 74.283-9.088 2.243-19.522 3.53-30.256 3.53-5.366 0-10.656-0.322-15.853-0.947l0.627 0.061zM497.664 317.312c-9.756-3.576-17.648-10.295-22.631-18.908l-0.11-0.206c-4.053-6.869-4.736-9.941-4.736-20.864s0.683-13.995 4.736-20.864c7.409-12.97 21.156-21.571 36.912-21.571 11.757 0 22.396 4.789 30.072 12.523l0.003 0.003c7.68 7.68 12.757 19.584 12.757 29.909 0 28.757-30.080 49.835-57.003 39.979z" />
<glyph unicode="&#xe90c;" glyph-name="list" d="M309.717 862.933c-4.309-1.963-37.205-31.445-87.595-78.464-44.373-41.429-81.195-75.307-81.835-75.221-0.683 0.043-8.832 9.6-18.176 21.205-9.899 12.288-19.584 22.571-23.253 24.619-11.819 6.613-24.832 3.499-37.675-9.003-11.136-10.837-12.501-23.424-3.968-36.011 2.347-3.456 16.939-21.888 32.469-41.003 22.955-28.331 29.653-35.499 35.925-38.528 9.259-4.48 16.896-3.755 26.283 2.432 6.101 4.053 150.272 137.6 181.461 168.107 8.277 8.107 16.128 16.811 17.493 19.328 1.494 3.376 2.364 7.313 2.364 11.453 0 3.529-0.632 6.911-1.789 10.038l0.065-0.2c-3.968 10.539-21.845 24.363-31.488 24.363-3.834-0.545-7.298-1.637-10.486-3.205l0.204 0.090zM503.424 777.557c-15.744-3.157-22.869-12.757-22.955-30.891-0.043-14.165 4.309-23.125 13.739-28.032 6.656-3.541 7.68-3.541 231.125-3.541s224.469 0 231.125 3.541c9.429 4.907 13.781 13.867 13.739 28.032-0.085 14.293-3.797 22.059-13.227 27.435l-7.211 4.139-220.16 0.256c-121.088 0.128-222.848-0.299-226.176-0.939zM309.717 564.267c-4.309-1.963-37.205-31.445-87.595-78.464-44.373-41.429-81.195-75.307-81.835-75.221-0.683 0.043-8.832 9.6-18.176 21.205-9.899 12.288-19.584 22.571-23.253 24.619-11.819 6.613-24.832 3.499-37.675-9.003-11.136-10.837-12.501-23.424-3.968-36.011 2.347-3.456 16.939-21.888 32.469-41.003 22.955-28.331 29.653-35.499 35.925-38.528 9.259-4.48 16.896-3.755 26.283 2.432 6.101 4.053 150.272 137.6 181.461 168.107 8.277 8.107 16.128 16.811 17.493 19.328 1.494 3.376 2.364 7.313 2.364 11.453 0 3.529-0.632 6.911-1.789 10.038l0.065-0.2c-3.968 10.539-21.845 24.363-31.488 24.363-3.834-0.545-7.298-1.637-10.486-3.205l0.204 0.090zM503.424 478.891c-15.744-3.157-22.869-12.757-22.955-30.891-0.043-14.165 4.309-23.125 13.739-28.032 6.656-3.541 7.68-3.541 231.125-3.541s224.469 0 231.125 3.541c9.429 4.907 13.781 13.867 13.739 28.032-0.085 14.293-3.797 22.059-13.227 27.435l-7.211 4.139-220.16 0.256c-121.088 0.128-222.848-0.299-226.176-0.939zM309.717 265.6c-4.309-1.963-37.205-31.445-87.595-78.464-44.373-41.429-81.195-75.307-81.835-75.221-0.683 0.043-8.832 9.6-18.176 21.205-9.899 12.288-19.584 22.571-23.253 24.619-11.819 6.613-24.832 3.499-37.675-9.003-11.136-10.837-12.501-23.424-3.968-36.011 2.347-3.456 16.939-21.888 32.469-41.003 22.955-28.331 29.653-35.499 35.925-38.528 9.259-4.48 16.896-3.755 26.283 2.432 6.101 4.053 150.272 137.6 181.461 168.107 8.277 8.107 16.128 16.811 17.493 19.328 1.494 3.376 2.364 7.313 2.364 11.453 0 3.529-0.632 6.911-1.789 10.038l0.065-0.2c-3.968 10.539-21.845 24.363-31.488 24.363-3.834-0.545-7.298-1.637-10.486-3.205l0.204 0.090zM503.424 180.224c-15.744-3.157-22.869-12.757-22.955-30.891-0.043-14.165 4.309-23.125 13.739-28.032 6.656-3.541 7.68-3.541 231.125-3.541s224.469 0 231.125 3.541c9.429 4.907 13.781 13.867 13.739 28.032-0.085 14.293-3.797 22.059-13.227 27.435l-7.211 4.139-220.16 0.256c-121.088 0.128-222.848-0.299-226.176-0.939z" />
<glyph unicode="&#xe90d;" glyph-name="note" d="M357.547 905.259c-112.768-3.2-164.096-18.645-204.885-61.611-32.341-34.005-46.507-74.155-53.845-152.448-1.237-13.099-2.219-89.728-2.731-212.48-0.768-186.581 0.299-253.355 4.651-292.693 7.168-64.384 22.613-103.509 53.547-135.424 34.389-35.541 78.293-51.584 160.597-58.667 36.309-3.115 357.931-3.115 394.24 0 82.304 7.083 126.208 23.125 160.597 58.667 33.92 35.029 48.768 77.056 55.68 157.611 3.115 36.651 3.115 442.923 0 479.573-6.869 79.787-21.76 122.411-54.784 156.757-12.773 13.405-27.808 24.514-44.518 32.742l-0.922 0.41c-36.779 18.347-77.056 25.045-167.253 27.691-62.293 1.835-234.325 1.749-300.373-0.128zM688.64 840.491c74.667-4.053 108.971-14.080 134.016-39.168 25.088-25.045 35.115-59.349 39.168-134.016 2.176-39.936 2.176-398.677 0-438.613-4.053-74.837-13.995-108.757-39.381-134.4-19.669-19.84-47.659-30.379-97.493-36.608-22.101-2.773-41.941-3.072-212.949-3.072s-190.848 0.299-212.949 3.072c-49.835 6.229-77.824 16.768-97.493 36.608-25.387 25.643-35.328 59.563-39.381 134.4-2.176 39.936-2.176 398.677 0 438.613 4.053 74.624 14.165 109.44 38.997 134.016 24.789 24.491 60.459 35.285 129.323 39.040 36.736 2.005 321.92 2.091 358.144 0.128zM332.757 564.224c-15.744-3.157-22.869-12.757-22.955-30.891-0.043-14.165 4.309-23.125 13.739-28.032 6.656-3.499 8.107-3.541 188.459-3.541s181.803 0.043 188.459 3.541c9.429 4.907 13.781 13.867 13.739 28.032-0.085 14.293-3.797 22.059-13.227 27.435l-7.211 4.139-177.493 0.256c-97.621 0.128-180.181-0.299-183.509-0.939zM332.757 393.557c-15.744-3.2-22.869-12.757-22.955-30.891-0.043-14.165 4.309-23.125 13.739-28.032 6.571-3.499 8.789-3.541 124.459-3.541s117.888 0.043 124.459 3.541c9.429 4.907 13.781 13.867 13.739 28.032-0.085 14.293-3.797 22.059-13.227 27.435l-7.211 4.139-113.493 0.256c-62.421 0.171-116.181-0.256-119.509-0.939z" />
<glyph unicode="&#xe90e;" glyph-name="call" d="M562.773 904.747c-3.536-1.285-6.592-2.869-9.403-4.786l0.144 0.093c-8.576-7.125-11.989-30.805-6.101-42.325 4.48-8.789 9.813-11.691 28.501-15.659 45.312-9.557 95.061-35.115 147.712-75.904 24.448-18.944 83.243-77.269 103.083-102.272 41.515-52.352 72.704-112.853 79.317-154.027 2.944-18.304 9.728-26.667 23.381-28.715 16.299-2.432 30.549 3.029 37.077 14.251 14.891 25.472-23.552 121.173-77.227 192.384-23.765 31.488-58.453 68.992-93.099 100.608-59.648 54.443-132.651 97.493-190.891 112.64-21.504 5.547-34.475 6.699-42.496 3.712zM269.653 862.805c-20.566-2.804-38.889-10.725-54.16-22.429l0.272 0.2c-9.643-7.296-83.627-84.395-93.355-97.323-16.482-21.138-26.426-48.076-26.426-77.337 0-3.716 0.16-7.395 0.475-11.029l-0.033 0.472c6.869-103.808 57.216-224.213 138.795-331.861 88.789-117.163 190.805-203.093 295.979-249.216 68.523-30.037 143.872-45.312 206.72-41.941 33.451 1.792 55.381 8.747 76.331 24.107 8.149 5.973 70.784 69.931 85.717 87.552 18.261 21.504 27.435 47.915 27.435 78.72 0 31.403-9.728 59.221-28.8 82.347-13.184 15.957-23.253 23.040-76.843 53.803-55.424 31.872-66.389 36.309-92.16 37.461-35.968 1.621-60.544-8.405-89.813-36.651-20.053-19.413-20.779-19.669-37.461-14.763-24.875 7.296-57.6 30.933-95.445 68.864-57.045 57.173-90.453 109.013-90.453 140.373 0 7.765 0.683 9.088 12.075 22.229 22.741 26.325 33.493 56.32 31.872 89.003-1.749 35.755-7.68 48.64-48.939 106.88-35.627 50.261-39.979 55.595-53.547 65.877-25.6 19.371-59.264 28.8-88.235 24.661zM301.611 796.8c16.256-5.461 21.931-11.52 55.851-59.52 17.835-25.216 33.536-49.28 35.413-54.229 2.773-7.296 3.285-11.861 2.731-25.131-0.896-19.84-4.395-27.52-20.821-45.696-12.971-14.336-17.109-21.675-20.651-36.608-12.331-52.352 24.875-124.245 106.667-206.165 30.208-30.293 46.507-44.117 70.827-60.16 36.821-24.277 68.779-34.176 97.323-30.123 18.944 2.688 28.16 7.979 48.469 27.861 19.285 18.944 24.192 22.187 37.461 25.045 16.085 3.413 24.192 0.512 67.627-24.32 53.419-30.592 61.099-35.712 68.181-45.269 8.832-11.947 13.525-28.459 12.501-44.075-1.323-20.693-5.12-26.368-47.061-70.272-20.309-21.205-40.277-40.747-44.459-43.349-11.648-7.424-22.443-8.875-59.051-7.936-62.037 1.621-113.323 14.933-175.872 45.739-57.6 28.331-111.104 67.584-163.84 120.235-119.083 118.912-194.005 253.013-210.219 376.32-3.456 26.197-2.432 41.344 3.669 53.803 4.949 10.155 26.709 34.56 69.333 77.781 19.541 19.84 24.107 23.637 31.403 25.941 5.222 1.694 11.23 2.67 17.466 2.67 6.084 0 11.95-0.929 17.466-2.654l-0.414 0.112zM593.067 754.347c-8.448-2.987-13.781-9.387-17.109-20.352-6.315-21.035-0.341-32.597 21.291-41.045 25.984-10.197 55.595-32.256 91.52-68.181 35.925-35.968 58.027-65.963 68.907-93.568 4.48-11.307 12.672-19.371 21.248-20.992 6.912-1.28 23.467 3.072 30.464 8.064 9.728 6.955 12.629 21.973 7.168 37.461-11.307 32.213-39.979 71.723-83.413 115.029-30.507 30.421-52.907 48.725-79.488 64.896-29.099 17.707-47.445 23.381-60.587 18.688z" />
<glyph unicode="&#xe90f;" glyph-name="heart" d="M297.813 850.688c-61.099-4.181-113.92-29.099-160.555-75.733-44.843-44.843-70.443-96-81.195-162.261-2.816-17.408-2.816-70.357 0-90.453 16.128-115.541 73.984-205.525 199.083-309.803 22.443-18.688 123.819-97.621 146.603-114.091 82.901-60.075 140.075-59.435 223.957 2.432 23.979 17.664 123.861 95.616 143.147 111.659 110.592 92.203 168.192 173.013 191.104 268.288 22.741 94.293 9.344 180.821-39.424 254.549-15.616 23.595-49.749 57.813-73.259 73.344-48.853 32.299-99.115 45.568-158.208 41.856-55.040-3.499-110.805-27.051-162.987-68.864l-14.080-11.307-14.080 11.307c-50.603 40.533-108.288 65.451-158.293 68.395-9.659 0.527-16.752 1.015-23.824 1.58l3.344-0.215c-1.152 0.022-2.511 0.035-3.873 0.035-6.146 0-12.231-0.261-18.245-0.772l0.785 0.054zM344.747 785.152c46.165-6.997 88.704-29.696 131.499-70.144 18.645-17.621 24.747-21.248 35.755-21.248 10.795 0 16.555 3.456 35.84 21.419 45.525 42.453 88.661 64.683 137.216 70.827 100.949 12.672 194.176-60.288 216.96-169.899 4.395-21.163 5.205-59.008 1.835-85.504-12.459-97.579-64.64-177.067-177.451-270.251-27.52-22.741-135.552-106.325-151.253-117.035-22.741-15.488-48.853-26.411-63.147-26.411-13.952 0-38.784 10.197-61.269 25.131-16.469 10.965-126.592 96.213-156.843 121.429-94.933 79.104-145.664 148.267-165.931 226.005-16.939 65.195-12.8 128 11.989 179.968 10.923 22.955 21.675 38.784 38.4 56.491 44.928 47.659 103.979 68.693 166.4 59.221z" />
<glyph unicode="&#xe910;" glyph-name="shop" d="M265.387 905.387c-10.915-0.69-21.025-2.117-30.87-4.256l1.345 0.245c-52.949-13.739-96.597-54.912-112.085-105.728-7.125-23.509-40.235-191.232-41.344-209.579-0.144-2.562-0.227-5.559-0.227-8.575 0-34.112 10.518-65.767 28.488-91.9l-0.357 0.549 7.424-10.88v-114.773c0-144.171 2.091-180.096 13.013-224.811 18.133-74.155 64-118.187 140.459-134.869 42.112-9.216 96-11.861 240.768-11.861 196.181 0 246.613 5.333 295.765 31.232 47.019 24.789 75.819 66.517 88.363 128 8.021 39.381 8.747 54.315 9.6 194.603l0.811 132.907 7.595 11.307c17.314 25.213 27.652 56.394 27.652 89.99 0 3.21-0.094 6.398-0.281 9.561l0.021-0.437c-1.152 18.389-34.304 186.581-41.301 209.536-15.36 50.432-58.709 91.563-111.147 105.515-9.732 2.012-21.35 3.533-33.188 4.234l-0.689 0.033c-27.264 1.835-461.227 1.749-489.813-0.043zM369.152 837.547c-0.341-2.603-6.741-66.432-14.208-141.867-7.509-75.435-14.805-141.099-16.213-145.92-9.899-33.792-42.155-62.891-76.629-69.205-50.091-9.131-99.755 22.741-112.683 72.405-5.333 20.48-3.968 32.768 13.611 120.363 21.973 109.611 23.296 114.091 38.613 134.443 8.149 10.837 16.981 17.579 33.323 25.429 15.957 7.68 24.363 8.533 85.163 8.832l49.621 0.213-0.597-4.693zM601.899 719.36c6.741-67.115 12.331-128.427 12.373-136.277 0.256-30.549-12.203-57.472-35.968-77.867-17.686-15.291-40.907-24.607-66.304-24.607s-48.618 9.316-66.433 24.716l0.129-0.109c-22.912 19.669-36.053 47.104-36.139 75.307 0 10.667 23.381 254.635 24.875 259.584 0.555 1.707 16.981 2.091 77.909 1.707l77.269-0.427 12.288-122.027zM762.752 840.576c23.467-2.731 46.464-15.403 59.605-32.811 15.232-20.224 16.896-26.069 39.595-139.349 16.512-82.389 17.92-95.232 12.629-115.456-9.714-36.063-38.355-63.595-74.35-71.558l-0.658-0.122c-22.528-4.736-39.851-2.56-61.909 7.723-24.931 12.319-43.74 33.853-52.194 60.039l-0.2 0.718c-1.408 4.821-8.704 70.485-16.213 145.92-16.79 193.617-21.828 242.405-26.968 291.164l12.76-149.297-0.597 4.693h47.061c25.899 0 53.547-0.768 61.44-1.664zM406.955 453.717c18.382-14.334 40.060-25.459 63.626-32.069l1.313-0.315c14.251-3.669 20.864-4.437 40.107-4.437s25.856 0.768 40.107 4.437c32.384 8.363 67.541 29.867 86.528 52.949l7.808 9.515 8.32-9.728c20.566-24.745 47.91-43.2 79.182-52.566l1.16-0.298c13.867-4.267 17.195-4.608 44.843-4.608 27.307 0 31.019 0.384 43.52 4.352 7.509 2.389 15.019 4.949 16.64 5.632 2.816 1.237 2.987-2.048 2.944-55.637-0.085-68.907-2.517-154.795-5.035-178.091-5.205-47.659-16.427-78.421-35.883-98.176-24.32-24.704-66.816-36.992-136.533-39.552l-14.507-0.512-0.939 87.893c-0.811 76.373-1.323 89.216-3.883 98.005-9.84 32.788-36.224 57.669-69.214 65.201l-0.631 0.121c-17.92 3.968-110.933 3.968-128.853 0-33.621-7.653-60.005-32.535-69.673-64.657l-0.172-0.666c-2.56-8.832-3.072-21.419-3.883-98.005l-0.939-87.893-14.507 0.512c-52.864 1.92-92.032 10.069-117.248 24.405-24.491 13.867-41.685 41.045-50.091 79.189-6.528 29.739-10.027 102.955-10.112 212.224-0.043 53.589 0.128 56.875 2.944 55.637 1.664-0.683 9.131-3.243 16.64-5.632 12.501-3.968 16.213-4.352 43.52-4.352 27.648 0 30.976 0.341 44.843 4.608 32.431 9.664 59.776 28.119 80.125 52.597l0.216 0.267 8.32 9.728 7.808-9.515c4.309-5.205 13.995-14.464 21.589-20.565zM563.2 243.072c4.846-1.254 9.066-3.452 12.642-6.402l-0.055 0.044c10.24-9.6 10.155-8.875 10.965-99.755l0.725-83.2h-150.955l0.725 83.2c0.811 90.923 0.725 90.112 11.008 99.797 3.272 2.81 7.201 4.956 11.518 6.177l0.215 0.052c9.387 2.176 93.696 2.261 103.211 0.085z" />
<glyph unicode="&#xe911;" glyph-name="user" d="M491.819 905.216c-25.105-2.512-48.079-9.391-68.922-19.884l1.125 0.513c-68.253-33.32-114.439-102.212-114.439-181.892 0-41.277 12.395-79.659 33.665-111.628l-0.464 0.741c12.203-18.816 39.467-46.080 58.283-58.283 31.239-20.821 69.638-33.224 110.933-33.224s79.694 12.403 111.674 33.687l-0.741-0.464c18.816 12.203 46.080 39.467 58.283 58.283 51.669 79.829 42.24 182.4-23.083 250.496-32.813 34.913-78.022 57.844-128.564 61.74l-0.673 0.042c-5.344 0.587-12.369 1.121-19.446 1.46l-0.863 0.033c-0.469-0.128-8.021-0.853-16.768-1.621zM550.997 837.205c21.675-6.229 38.101-15.872 56.363-33.28 19.029-18.133 31.275-37.973 38.144-61.867 5.504-19.2 5.504-56.917 0-76.117-7.125-24.832-19.541-44.459-40.149-63.659-27.008-25.088-56.277-36.523-93.355-36.523s-66.347 11.435-93.355 36.523c-20.608 19.2-33.024 38.827-40.149 63.659-5.504 19.2-5.504 56.917 0 76.117 6.485 22.613 16 38.827 33.579 57.301 19.444 21.187 45.528 36.002 74.938 41.144l0.796 0.115c13.696 2.475 49.152 0.555 63.189-3.413zM478.208 435.84c-43.136-2.347-94.592-12.203-132.779-25.429-22.443-7.808-67.669-30.763-84.608-43.008-66.944-48.427-93.568-112.725-72.363-175.061 17.195-50.56 66.901-96.512 134.955-124.843 111.189-46.251 258.389-47.189 371.2-2.347 71.381 28.373 123.179 75.093 140.843 126.933 21.291 62.592-5.205 126.805-72.277 175.317-16.939 12.245-62.165 35.2-84.608 43.008-40.149 13.909-88.96 22.912-138.411 25.6-8.893 0.591-20.775 1.128-32.707 1.462l-1.426 0.032c-5.175-0.437-14.823-1.033-24.498-1.528l-3.32-0.136zM582.827 367.915c42.581-6.784 79.275-17.835 109.227-32.853 66.432-33.323 96.427-77.184 82.816-121.131-13.995-45.227-74.624-86.187-156.203-105.515-40.96-9.728-53.888-11.051-106.667-11.051s-65.707 1.323-106.667 11.051c-81.579 19.328-142.208 60.288-156.203 105.515-8.704 28.075-0.043 55.509 25.813 81.707 38.827 39.339 108.501 66.816 191.616 75.563 24.405 2.56 91.264 0.683 116.267-3.285z" />
<glyph unicode="&#xe912;" glyph-name="cart" d="M77.269 862.805c-23.637-5.803-31.829-36.352-14.208-53.077 4.821-4.608 11.477-7.851 27.563-13.483 66.731-23.339 79.019-31.275 85.333-54.955 1.365-5.163 2.389-52.096 3.328-153.344 1.024-114.005 1.877-150.229 3.883-165.547 6.571-50.304 17.664-76.885 43.435-104.277 25.557-27.179 50.987-38.997 101.077-47.061 15.915-2.56 40.747-2.944 221.013-3.541 238.464-0.725 239.317-0.683 270.464 14.592 30.080 14.72 47.872 41.984 60.459 92.501 6.016 24.192 35.627 167.637 42.283 204.8 6.571 36.821 7.509 68.011 2.517 84.48-12.117 39.851-37.803 56.917-96.683 64.171-11.563 1.408-97.664 2.219-300.715 2.731-265.088 0.683-284.544 0.939-285.312 3.627-0.683 2.916-1.371 6.786-1.889 10.71l-0.074 0.682c-1.92 14.165-8.917 33.792-15.872 44.501-17.493 26.965-41.515 41.429-106.965 64.427-24.704 8.661-31.573 10.069-39.637 8.064zM833.237 662.656c29.824-6.144 31.275-7.893 29.824-35.371-1.195-22.784-4.096-39.125-26.197-145.877-23.381-113.195-27.947-128.768-40.533-138.368-16.64-12.672-27.307-13.227-250.197-12.288-193.067 0.768-203.008 1.152-231.253 8.107-19.755 4.864-29.824 10.411-41.259 22.656-15.147 16.213-21.675 31.957-26.283 63.445-1.323 8.917-2.261 53.333-2.773 127.616l-0.811 114.005 288.171-0.597c255.275-0.555 289.621-0.939 301.312-3.328zM306.347 222.677c-31.574-4.642-57.745-24.226-71.431-51.212l-0.249-0.542c-6.272-12.715-11.051-31.275-11.051-42.923 0-23.040 11.691-50.432 28.843-67.541 17.109-17.152 44.501-28.843 67.541-28.843s50.432 11.691 67.541 28.843c17.152 17.109 28.843 44.501 28.843 67.541 0 3.755-1.152 12.203-2.517 18.773-9.342 44.159-47.994 76.82-94.273 76.82-4.672 0-9.267-0.333-13.761-0.976l0.515 0.060zM690.347 222.677c-31.574-4.642-57.745-24.226-71.431-51.212l-0.249-0.542c-6.272-12.715-11.051-31.275-11.051-42.923 0-23.040 11.691-50.432 28.843-67.541 17.109-17.152 44.501-28.843 67.541-28.843s50.432 11.691 67.541 28.843c17.152 17.109 28.843 44.501 28.843 67.541 0 3.755-1.152 12.203-2.517 18.773-9.342 44.159-47.994 76.82-94.273 76.82-4.672 0-9.267-0.333-13.761-0.976l0.515 0.060zM332.373 156.928c7.378-2.524 13.15-8.058 15.938-15.099l0.062-0.176c1.879-4.007 2.976-8.702 2.976-13.653s-1.097-9.646-3.060-13.855l0.085 0.202c-2.85-7.217-8.622-12.751-15.817-15.22l-0.183-0.055c-3.696-1.495-7.982-2.363-12.47-2.363-8.332 0-15.965 2.989-21.887 7.953l0.053-0.043c-4.821 4.267-9.557 15.616-9.6 22.997 0.312 8.485 3.33 16.209 8.211 22.396l-0.062-0.081c7.637 8.661 24.107 11.861 35.755 6.997zM716.373 156.928c7.378-2.524 13.15-8.058 15.938-15.099l0.062-0.176c5.504-12.032 2.56-29.056-6.443-37.035-6.022-4.718-13.585-7.728-21.829-8.187l-0.102-0.005c-8.346 0.464-15.909 3.473-22.016 8.257l0.086-0.065c-4.821 4.267-9.557 15.616-9.6 22.997 0.312 8.485 3.33 16.209 8.211 22.396l-0.062-0.081c7.637 8.661 24.107 11.861 35.755 6.997z" />
<glyph unicode="&#xe913;" glyph-name="category" d="M243.669 882.347c-30.532-5.763-57.65-17.079-81.49-32.932l0.808 0.505c-14.123-9.387-37.035-31.573-48.512-46.976-52.48-70.4-52.48-170.155 0-240.555 64.811-86.955 183.68-107.733 275.456-48.128 15.403 9.984 45.824 40.405 55.808 55.808 45.397 69.931 45.397 155.264 0 225.195-9.728 15.019-40.277 45.739-54.912 55.296-43.861 28.544-97.451 40.149-147.157 31.787zM713.003 882.347c-30.532-5.763-57.65-17.079-81.49-32.932l0.808 0.505c-14.123-9.387-37.035-31.573-48.512-46.976-52.48-70.4-52.48-170.155 0-240.555 64.811-86.955 183.68-107.733 275.456-48.128 15.403 9.984 45.824 40.405 55.808 55.808 21.197 31.374 33.837 70.044 33.837 111.666 0 0.328-0.001 0.655-0.002 0.982v-0.051c0 40.704-11.093 77.568-33.835 112.597-9.728 15.019-40.277 45.739-54.912 55.296-43.861 28.544-97.451 40.149-147.157 31.787zM313.771 816.427c6.912-1.707 19.584-6.784 28.16-11.264 12.715-6.613 18.773-11.307 32.768-25.216 15.189-15.104 18.176-19.157 26.069-34.987 10.88-21.76 14.336-36.821 14.336-62.293 0-25.515-3.456-40.533-14.336-62.293-7.765-15.531-11.136-20.139-25.259-34.304-18.304-18.432-32.896-27.947-53.589-34.816-13.326-4.571-28.681-7.21-44.652-7.21-15.875 0-31.141 2.608-45.394 7.418l1-0.293c-20.864 6.997-35.371 16.427-53.675 34.901-12.928 13.099-17.835 19.541-24.363 32-11.648 22.443-15.147 37.333-15.147 64.597 0 27.136 3.413 41.771 15.061 64.469 6.699 13.099 10.965 18.645 25.216 32.896 14.123 14.165 19.84 18.56 32.512 25.003 8.448 4.352 19.883 9.173 25.429 10.795 21.803 6.315 52.309 6.571 75.861 0.597zM783.104 816.427c6.912-1.707 19.584-6.784 28.16-11.264 12.715-6.613 18.773-11.307 32.768-25.216 15.189-15.104 18.176-19.157 26.069-34.987 10.88-21.76 14.336-36.821 14.336-62.293 0-25.515-3.456-40.533-14.336-62.293-7.765-15.531-11.136-20.139-25.259-34.304-18.304-18.432-32.896-27.947-53.589-34.816-13.326-4.571-28.681-7.21-44.652-7.21-15.875 0-31.141 2.608-45.394 7.418l1-0.293c-20.864 6.997-35.371 16.427-53.675 34.901-12.928 13.099-17.835 19.541-24.363 32-11.648 22.443-15.147 37.333-15.147 64.597 0 27.136 3.413 41.771 15.061 64.469 6.699 13.099 10.965 18.645 25.216 32.896 14.123 14.165 19.84 18.56 32.512 25.003 8.448 4.352 19.883 9.173 25.429 10.795 21.803 6.315 52.309 6.571 75.861 0.597zM243.669 413.013c-30.532-5.763-57.65-17.079-81.49-32.932l0.808 0.505c-14.123-9.387-37.035-31.573-48.512-46.976-52.48-70.4-52.48-170.155 0-240.555 64.811-86.955 183.68-107.733 275.456-48.128 15.403 9.984 45.824 40.405 55.808 55.808 21.197 31.374 33.837 70.044 33.837 111.666 0 0.328-0.001 0.655-0.002 0.982v-0.051c0 40.704-11.093 77.568-33.835 112.597-9.728 15.019-40.277 45.739-54.912 55.296-43.861 28.544-97.451 40.149-147.157 31.787zM713.003 413.013c-30.532-5.763-57.65-17.079-81.49-32.932l0.808 0.505c-14.123-9.387-37.035-31.573-48.512-46.976-52.48-70.4-52.48-170.155 0-240.555 64.811-86.955 183.68-107.733 275.456-48.128 15.403 9.984 45.824 40.405 55.808 55.808 45.397 69.931 45.397 155.264 0 225.195-9.728 15.019-40.277 45.739-54.912 55.296-43.861 28.544-97.451 40.149-147.157 31.787zM313.771 347.093c6.912-1.707 19.584-6.784 28.16-11.264 12.715-6.613 18.773-11.307 32.768-25.216 15.189-15.104 18.176-19.157 26.069-34.987 10.88-21.76 14.336-36.821 14.336-62.293 0-25.515-3.456-40.533-14.336-62.293-7.765-15.531-11.136-20.139-25.259-34.304-18.304-18.432-32.896-27.947-53.589-34.816-13.326-4.571-28.681-7.21-44.652-7.21-15.875 0-31.141 2.608-45.394 7.418l1-0.293c-20.864 6.997-35.371 16.427-53.675 34.901-12.928 13.099-17.835 19.541-24.363 32-11.648 22.443-15.147 37.333-15.147 64.597 0 27.136 3.413 41.771 15.061 64.469 6.699 13.099 10.965 18.645 25.216 32.896 14.123 14.165 19.84 18.56 32.512 25.003 8.448 4.352 19.883 9.173 25.429 10.795 21.803 6.315 52.309 6.571 75.861 0.597zM783.104 347.093c6.912-1.707 19.584-6.784 28.16-11.264 12.715-6.613 18.773-11.307 32.768-25.216 15.189-15.104 18.176-19.157 26.069-34.987 10.88-21.76 14.336-36.821 14.336-62.293 0-25.515-3.456-40.533-14.336-62.293-7.765-15.531-11.136-20.139-25.259-34.304-18.304-18.432-32.896-27.947-53.589-34.816-13.326-4.571-28.681-7.21-44.652-7.21-15.875 0-31.141 2.608-45.394 7.418l1-0.293c-20.864 6.997-35.371 16.427-53.675 34.901-12.928 13.099-17.835 19.541-24.363 32-11.648 22.443-15.147 37.333-15.147 64.597 0 27.136 3.413 41.771 15.061 64.469 6.699 13.099 10.965 18.645 25.216 32.896 14.123 14.165 19.84 18.56 32.512 25.003 8.448 4.352 19.883 9.173 25.429 10.795 21.803 6.315 52.309 6.571 75.861 0.597z" />
<glyph unicode="&#xe914;" glyph-name="search" d="M440.32 905.387c-151.158-10.882-278.97-101.103-342.891-228.852l-1.088-2.401c-19.627-40.107-32.512-81.664-39.424-127.147-4.139-27.136-4.139-85.504 0-112.64 19.029-125.483 87.552-230.784 193.408-297.301 45.867-28.843 104.149-49.92 162.688-58.795 27.136-4.139 85.504-4.139 112.64 0 89.6 13.611 167.765 51.456 230.613 111.701 68.309 65.451 110.933 148.437 125.483 244.395 4.139 27.136 4.139 85.504 0 112.64-18.901 124.544-87.040 229.931-191.573 296.149-35.157 22.272-90.368 44.928-130.389 53.461-28.103 6.052-60.389 9.518-93.484 9.518-9.14 0-18.219-0.264-27.228-0.786l1.246 0.058zM525.653 838.059c78.227-13.181 146.086-50.444 197.35-103.776l0.112-0.117c50.176-52.523 81.621-115.755 93.867-188.715 4.267-25.301 4.267-84.267 0-109.568-26.112-155.691-147.755-274.176-302.080-294.187-160.896-20.864-314.411 70.528-374.059 222.677-7.861 20.308-14.513 44.341-18.822 69.177l-0.335 2.333c-4.267 25.301-4.267 84.267 0 109.568 12.757 76.075 45.483 140.032 99.157 193.707 59.264 59.221 127.019 91.221 216.064 102.016 13.355 1.621 73.173-0.469 88.747-3.115zM843.392 179.968c-14.976-2.688-27.349-9.6-40.533-22.827-17.877-17.835-26.283-39.168-24.021-60.757 1.28-12.501 11.947-49.323 17.963-62.251 6.699-14.336 20.267-28.629 33.195-34.901 27.861-13.568 50.56-13.483 76.459 0.213 12.715 6.741 48.811 43.136 55.040 55.552 12.288 24.448 12.331 46.891 0.171 73.515-5.589 12.245-21.12 27.392-34.944 34.133-14.336 6.955-49.792 17.067-63.531 18.091-1.846 0.126-4.002 0.198-6.174 0.198-4.806 0-9.53-0.351-14.148-1.029l0.524 0.063zM879.275 111.872c24.32-7.339 26.965-9.344 26.965-20.779 0-4.736-2.347-7.893-15.872-21.461-13.568-13.525-16.725-15.872-21.461-15.872-11.435 0-13.44 2.645-20.779 26.965-6.357 21.035-6.357 24.875-0.043 31.189s10.155 6.315 31.189-0.043z" />
<glyph unicode="&#xe915;" glyph-name="home" d="M500.907 906.069c-57.173-7.509-78.123-17.579-245.76-117.973-97.365-58.283-121.131-74.581-147.755-101.077-35.968-35.883-50.773-70.4-53.845-125.312-1.707-30.421 3.584-77.867 25.003-225.109 19.456-133.504 25.429-165.803 37.717-203.349 26.24-80.256 73.429-121.045 157.184-135.723 40.619-7.125 60.629-7.765 238.549-7.765s197.931 0.64 238.549 7.765c91.392 16 139.605 63.061 164.267 160.256 9.6 37.845 15.317 72.192 35.627 214.272 16.555 115.456 19.413 141.397 19.584 175.787 0.256 48.683-8.107 79.915-30.208 112.64-8.832 13.099-35.712 39.893-52.779 52.651-25.045 18.645-102.059 66.133-213.76 131.797-57.472 33.749-102.656 53.931-131.413 58.581-12.885 2.133-34.219 3.456-40.96 2.56zM537.941 838.869c30.976-7.808 50.091-17.792 167.765-87.637 70.229-41.685 121.515-73.557 139.392-86.741 22.827-16.811 40.533-35.968 48.768-52.821 9.813-20.096 11.52-29.696 11.435-64.683-0.043-34.219-1.621-47.829-20.523-179.883-19.157-133.504-28.203-184.619-37.717-213.504-19.712-59.563-48.384-83.669-111.488-93.781-29.611-4.736-76.288-5.973-223.573-5.973s-193.963 1.237-223.573 5.973c-72.363 11.605-102.187 43.221-120.277 127.488-6.571 30.549-16.384 91.819-30.592 190.72-17.024 118.784-20.395 150.101-19.285 178.347 1.109 27.947 3.157 37.376 11.861 55.296 8.235 16.853 25.899 36.011 48.768 52.821 26.496 19.499 178.219 111.445 238.933 144.725 56.277 30.933 86.016 38.272 120.107 29.653zM375.424 222.891c-15.744-3.157-22.869-12.757-22.955-30.891-0.043-14.165 4.309-23.125 13.739-28.032 6.613-3.499 8.576-3.541 145.792-3.541s139.179 0.043 145.792 3.541c9.429 4.907 13.781 13.867 13.739 28.032-0.085 14.293-3.797 22.059-13.227 27.435l-7.211 4.139-134.827 0.256c-74.155 0.128-137.515-0.299-140.843-0.939z" />
<glyph unicode="&#xe916;" glyph-name="arrow-right-long" d="M691.251 650.547c-9.062-2.867-21.504-15.923-23.962-25.037-0.859-3.117-1.352-6.697-1.352-10.392 0-6.606 1.578-12.844 4.377-18.358l-0.106 0.231c2.099-4.045 23.654-25.446 57.805-57.242 29.952-27.904 54.733-51.507 55.040-52.48 0.41-1.126-109.466-1.843-327.936-2.15l-328.55-0.41-7.373-5.171c-9.667-7.339-16.048-18.574-16.788-31.323l-0.005-0.114c0.558-16.216 10.46-29.988 24.467-36.147l0.263-0.103c4.198-1.843 66.406-2.406 330.803-3.123l325.683-0.819-55.296-51.405c-57.088-53.043-60.672-57.19-62.31-71.424-1.894-16.998 10.701-35.789 26.88-40.192 8.806-2.355 21.555-1.331 28.518 2.355 2.611 1.382 46.643 41.37 97.792 88.832 100.762 93.44 102.4 95.283 102.4 111.923s-1.741 18.534-101.53 111.155c-67.277 62.464-94.464 86.63-100.71 89.6-4.736 2.37-10.319 3.757-16.225 3.757-4.254 0-8.34-0.72-12.142-2.043l0.259 0.078z" />
<glyph unicode="&#xe917;" glyph-name="arrow-left-long" d="M304.64 648.755c-6.246-2.97-33.587-27.29-101.53-90.419-100.25-93.082-100.659-93.542-100.659-110.336 0-16.896 0.307-17.203 101.478-111.155 51.661-47.923 96.051-88.269 98.662-89.651 3.725-1.636 8.048-2.842 12.57-3.407l0.23-0.023c24.064-2.816 45.261 17.715 42.598 41.318-1.638 14.234-5.222 18.381-62.31 71.424l-55.296 51.405 651.366 1.69 8.243 4.045c9.36 5.092 16.456 13.35 19.929 23.307l0.090 0.296c4.71 14.336-2.56 33.997-15.872 42.803l-7.014 4.659-328.243 0.41c-180.531 0.256-328.243 1.075-328.243 1.843s24.832 24.474 55.142 52.634c37.632 34.97 56.166 53.35 58.266 57.856 7.526 15.821 4.864 31.59-7.322 43.418-12.749 12.339-26.982 15.002-42.086 7.885z" />
<glyph unicode="&#xe918;" glyph-name="arrow-left" d="M581.12 702.037c-10.069-5.163-233.216-228.736-238.123-238.549-2.32-4.509-3.68-9.84-3.68-15.488s1.36-10.979 3.77-15.682l-0.090 0.194c5.333-10.667 228.181-233.515 238.848-238.848 15.061-7.509 30.635-3.669 45.397 11.093 14.805 14.805 18.603 30.336 11.051 45.397-2.603 5.248-32.896 36.736-98.688 102.699l-94.933 95.147 94.933 95.147c65.792 65.963 96.085 97.451 98.688 102.699 7.552 15.061 3.755 30.592-11.051 45.397-14.507 14.507-31.275 18.432-46.123 10.795z" />
<glyph unicode="&#xe919;" glyph-name="dots" d="M198.656 564.011c-15.147-2.048-23.851-4.693-37.077-11.221-30.299-15.302-52.799-42.319-61.757-74.941l-0.195-0.835c-4.053-14.933-4.053-43.093 0-58.027 11.383-41.379 43.314-73.31 83.851-84.495l0.843-0.198c14.976-4.096 43.093-4.053 58.027 0 41.362 11.415 73.278 43.332 84.494 83.849l0.199 0.844c2.005 7.381 3.029 17.109 3.029 29.013 0 28.032-7.467 49.877-24.533 72.021-21.918 27.413-55.358 44.82-92.864 44.82-4.94 0-9.809-0.302-14.59-0.888l0.574 0.057zM497.323 564.011c-39.617-5.188-72.606-29.474-89.804-63.165l-0.308-0.665c-8.917-18.176-11.947-31.445-11.947-52.181 0-20.693 3.029-34.005 11.904-52.096 15.45-30.115 42.439-52.463 74.979-61.414l0.84-0.197c14.976-4.096 43.093-4.053 58.027 0 33.451 9.173 62.336 32.981 76.715 63.232 8.021 16.896 11.008 30.549 11.008 50.475 0 28.032-7.467 49.877-24.533 72.021-21.918 27.413-55.358 44.82-92.864 44.82-4.94 0-9.809-0.302-14.59-0.888l0.574 0.057zM795.989 564.011c-39.617-5.188-72.606-29.474-89.804-63.165l-0.308-0.665c-8.917-18.176-11.947-31.445-11.947-52.181 0-28.245 8.747-53.163 25.856-73.899 21.108-26.216 53.199-42.85 89.176-42.85 0.599 0 1.197 0.005 1.794 0.014l-0.090-0.001c19.925 0 33.579 2.987 50.475 11.008 30.251 14.379 54.059 43.264 63.232 76.715 4.096 14.976 4.096 43.051 0 58.027-15.701 57.301-70.955 94.72-128.384 86.997zM236.245 495.872c10.667-5.205 19.755-14.251 25.003-24.96 5.973-12.117 5.931-33.749-0.043-45.909-24.064-48.896-97.365-34.389-100.48 19.84-0.092 1.256-0.144 2.722-0.144 4.199 0 4.865 0.565 9.598 1.634 14.137l-0.083-0.416c5.12 16.128 17.92 29.611 33.749 35.627 9.899 3.797 30.080 2.517 40.363-2.517zM534.912 495.872c10.667-5.205 19.755-14.251 25.003-24.96 5.973-12.117 5.931-33.749-0.043-45.909-19.584-39.765-76.373-39.765-95.701 0-4.907 10.069-6.485 27.947-3.371 37.76 5.12 16.128 17.92 29.611 33.749 35.627 9.899 3.797 30.080 2.517 40.363-2.517zM833.579 495.872c10.667-5.205 19.755-14.251 25.003-24.96 5.973-12.117 5.931-33.749-0.043-45.909-19.584-39.765-76.373-39.765-95.701 0-4.907 10.069-6.485 27.947-3.371 37.76 5.12 16.128 17.92 29.611 33.749 35.627 9.899 3.797 30.080 2.517 40.363-2.517z" />
<glyph unicode="&#xe91a;" glyph-name="filter" d="M128 905.088c-31.915-4.565-60.8-30.933-70.656-64.427-2.219-7.509-2.731-18.304-2.731-56.917 0-51.883 0.853-58.453 10.197-79.019 8.405-18.56 17.365-29.355 74.283-89.344 30.635-32.299 57.472-61.099 59.563-64 2.133-2.859 5.717-9.472 7.979-14.635l4.139-9.387 0.981-90.453c1.109-101.973 0.725-99.115 14.592-121.472 17.451-28.245 46.421-42.795 81.707-41.088 21.76 1.067 28.288 3.669 61.227 24.661 36.352 23.125 47.744 35.755 57.6 63.659 3.797 10.752 3.968 13.355 4.864 87.936l0.896 76.843 5.547 11.264c5.248 10.667 8.661 13.995 69.973 67.883 37.163 32.725 68.267 61.44 73.515 67.968 11.262 15.005 20.382 32.43 26.445 51.227l0.349 1.253c3.797 13.781 5.504 79.061 2.645 100.736-5.376 40.491-36.267 72.064-75.776 77.483-16.768 2.304-391.125 2.133-407.339-0.171zM707.285 893.397c-13.653-6.741-20.096-28.8-13.099-44.629 4.608-10.368 11.904-13.653 43.093-19.243 64.128-11.52 89.173-23.637 118.059-56.917 21.845-25.216 36.565-60.629 44.757-107.861 5.888-34.176 6.4-54.528 5.76-230.4-0.725-190.208-0.427-184.235-11.563-229.035-19.456-78.123-61.44-120.149-139.605-139.605-45.483-11.349-40.235-11.093-242.688-11.093-167.936 0-185.131 0.256-203.093 3.072-105.984 16.512-156.331 57.728-179.029 146.603-10.155 39.851-10.923 49.621-11.989 156.672-0.939 94.123-1.109 98.389-4.395 103.936-6.869 11.648-20.395 16.896-36.053 13.952-8.769-1.271-16.095-6.514-20.195-13.813l-0.072-0.139c-3.243-5.504-3.456-9.429-3.968-73.216-0.853-102.315 2.987-157.397 13.995-200.832 23.765-93.739 75.179-151.040 161.323-179.84 35.627-11.904 70.059-17.707 121.045-20.395 41.344-2.176 283.52-2.176 324.864 0 50.987 2.688 85.419 8.491 121.045 20.395 98.901 33.067 152.533 103.979 169.685 224.256 5.077 35.584 6.272 89.045 5.461 239.744-0.683 124.757-1.237 151.68-3.669 171.819-10.453 86.571-37.504 147.456-83.968 189.184-13.056 11.733-39.851 29.099-54.059 34.987-15.787 6.571-51.371 15.915-81.963 21.547-28.416 5.205-30.805 5.248-39.68 0.853zM535.467 838.827c3.578-2.398 6.562-5.382 8.887-8.845l0.073-0.115c3.115-5.12 3.413-8.661 3.413-45.056 0-44.501-0.981-49.323-13.312-66.603-3.755-5.291-32.725-32.128-72.021-66.773-76.8-67.712-79.573-71.040-90.837-108.629-3.328-11.221-3.627-16.939-4.309-86.443-0.853-88.789 0.853-81.749-24.32-98.475-26.155-17.365-32.683-20.779-39.765-20.821-8.576 0-19.328 5.675-23.424 12.459-3.2 5.205-3.371 9.045-3.371 84.011 0 43.221-0.768 84.779-1.749 92.373-2.944 23.765-14.336 51.157-28.373 68.395-22.212 24.347-42.256 45.742-62.563 66.883l1.123-1.177c-48.299 50.816-56.363 60.075-61.355 70.4l-5.803 11.904v39.765c0 36.693 0.256 40.363 3.499 46.635 2.22 4.099 5.238 7.499 8.871 10.094l0.089 0.061c5.333 3.285 9.899 3.371 202.581 3.371 193.707 0 197.205-0.085 202.667-3.413zM545.579 436.139c-14.592-2.901-22.144-13.397-22.144-30.805 0-19.712 8.832-29.525 28.288-31.573 5.845-0.597 59.392-0.853 118.997-0.555 104.789 0.555 108.544 0.683 114.176 3.968 7.438 4.171 12.681 11.498 13.934 20.118l0.018 0.149c2.944 15.659-2.304 29.184-13.952 36.053-5.632 3.328-9.131 3.413-119.296 3.669-62.421 0.171-116.437-0.299-120.021-1.024zM460.245 265.472c-14.592-2.901-22.144-13.397-22.144-30.805 0-19.712 8.832-29.568 28.288-31.531 5.845-0.597 78.592-0.853 161.664-0.555 147.456 0.512 151.168 0.597 156.843 3.925 11.648 6.869 16.896 20.395 13.952 36.053-1.271 8.769-6.514 16.095-13.813 20.195l-0.139 0.072c-5.675 3.328-9.131 3.413-161.963 3.669-85.888 0.128-159.104-0.341-162.688-1.024z" />
<glyph unicode="&#xe91b;" glyph-name="discount" d="M488.533 902.912c-23.595-5.376-30.208-10.155-74.667-53.973-22.528-22.229-43.648-41.813-46.933-43.605-5.419-2.901-11.691-3.285-66.56-4.267-67.072-1.152-69.547-1.493-90.453-13.013-20.608-11.349-40.533-36.011-47.915-59.307-1.493-4.693-2.475-25.813-3.157-67.413-0.981-59.605-1.067-60.715-5.035-68.267-2.432-4.565-20.139-23.979-43.563-47.787-42.027-42.667-47.531-50.005-53.077-70.955-1.579-5.973-2.731-17.152-2.731-27.221 0-20.565 5.12-39.040 14.891-53.717 3.456-5.163 23.467-26.709 44.459-47.915 32.384-32.683 38.699-39.893 41.557-47.403 3.072-8.064 3.371-13.227 3.371-61.397 0-30.123 0.768-56.917 1.835-62.72 2.859-15.829 12.203-33.365 24.832-46.763 12.843-13.611 23.595-20.992 39.595-27.093 11.221-4.309 12.203-4.395 71.979-5.291 53.376-0.811 61.397-1.323 67.371-4.011 4.352-1.963 21.077-17.152 46.080-41.941 41.984-41.515 50.987-48.384 71.68-54.699 14.933-4.608 39.979-4.992 55.808-0.939 21.589 5.589 28.416 10.667 71.381 53.035 24.107 23.765 43.179 41.173 47.787 43.563 7.552 3.968 8.832 4.053 68.267 5.035 41.6 0.683 62.72 1.664 67.413 3.157 23.296 7.381 47.744 27.136 59.349 48 11.093 20.011 11.989 26.325 13.056 92.075 0.896 53.035 1.28 59.477 4.181 64.853 1.749 3.285 20.267 23.253 41.131 44.373s40.235 41.856 43.008 46.080c20.779 31.616 20.907 75.733 0.384 107.648-4.181 6.485-22.187 26.24-44.203 48.512-20.437 20.651-38.571 40.235-40.32 43.52-2.901 5.376-3.285 11.947-4.224 65.707-0.939 54.528-1.365 60.715-4.651 70.827-10.939 32.228-36.105 57.029-67.818 67.248l-0.748 0.208c-7.893 2.517-18.859 3.157-69.12 4.053-53.76 0.939-60.331 1.323-65.707 4.224-3.285 1.749-22.869 19.883-43.52 40.32-39.979 39.552-52.096 48.939-70.699 54.784-14.635 4.565-39.979 5.717-54.315 2.475zM528.171 837.589c2.859-1.451 23.211-20.395 45.269-42.155 42.795-42.197 48.043-46.080 72.533-54.016 11.179-3.584 15.829-3.925 71.808-4.864l59.861-0.981 6.229-4.736c3.413-2.603 8.363-7.552 10.965-10.965l4.736-6.229 0.981-59.861c0.896-56.149 1.195-60.587 4.864-71.808 7.979-24.533 11.819-29.739 54.016-72.533 21.76-22.059 40.704-42.411 42.112-45.227 4.011-8.107 4.949-16.981 2.773-25.899-1.835-7.509-5.376-11.605-40.789-47.488-39.851-40.32-47.36-49.792-55.168-69.376-6.656-16.811-7.851-29.653-7.893-84.693-0.043-41.216-0.512-51.115-2.688-56.32-3.3-7.978-9.272-14.296-16.778-17.958l-0.203-0.090c-6.528-3.499-9.557-3.712-66.56-4.523-59.435-0.896-59.819-0.896-72.235-5.461-22.315-8.107-29.867-13.867-71.168-54.613-24.789-24.491-41.6-39.723-45.568-41.387-4.202-1.605-9.061-2.534-14.138-2.534-5.033 0-9.853 0.914-14.303 2.584l0.281-0.092c-3.968 1.664-21.12 17.323-46.464 42.411-37.76 37.419-41.045 40.235-54.699 46.891-23.936 11.648-27.989 12.203-87.808 12.203-32.085 0-55.552 0.725-59.52 1.835-5.149 1.877-9.575 4.587-13.345 8.008l0.033-0.030c-12.8 11.563-12.501 9.643-13.483 77.227l-0.896 60.587-5.248 13.696c-3.201 8.367-6.558 15.393-10.393 22.111l0.409-0.777c-2.603 4.224-22.272 25.301-43.691 46.933-24.747 24.96-39.936 41.6-41.6 45.611-1.602 4.191-2.529 9.038-2.529 14.101s0.928 9.911 2.622 14.38l-0.093-0.279c1.664 3.968 16.896 20.779 41.387 45.568 40.747 41.301 46.507 48.853 54.613 71.168 4.523 12.416 4.565 12.843 5.461 72.235 0.597 38.827 1.579 61.269 2.859 64.085 2.901 6.571 10.539 15.019 16.555 18.304 4.651 2.56 13.141 3.072 65.067 3.968 66.688 1.152 67.285 1.237 92.16 13.995 12.203 6.272 17.963 11.264 54.016 46.891 33.109 32.725 41.728 40.32 47.787 42.283 3.295 0.973 7.080 1.534 10.996 1.534 6.119 0 11.919-1.367 17.11-3.813l-0.245 0.104zM631.467 608.213c-4.693-1.365-35.413-31.147-141.952-137.728-149.419-149.419-142.251-141.227-137.899-157.525 2.56-9.429 15.915-22.784 25.344-25.344 16.256-4.352 8.363-11.221 155.179 135.339 73.515 73.387 135.296 136.064 137.301 139.264 2.361 3.915 3.758 8.642 3.758 13.696 0 5.953-1.938 11.453-5.218 15.904l0.052-0.074c-9.771 13.867-23.765 20.139-36.565 16.469zM385.792 594.261c-8.277-2.645-18.304-13.227-20.565-21.717-1.067-3.925-1.92-11.947-1.92-17.877 0-15.36 2.773-23.893 10.155-31.275 7.637-7.637 16.427-10.539 31.872-10.539 15.317 0 24.235 2.901 31.573 10.24s10.24 16.256 10.24 31.573c0 0.081 0 0.177 0 0.272 0 6.471-0.762 12.764-2.202 18.794l0.111-0.549c-3.665 9.883-11.322 17.54-20.96 21.125l-0.245 0.080c-8.448 2.517-29.952 2.432-38.059-0.128zM599.125 380.928c-8.277-2.645-18.304-13.227-20.565-21.717-1.067-3.925-1.92-11.947-1.92-17.877 0-15.36 2.773-23.893 10.155-31.275 7.637-7.637 16.427-10.539 31.872-10.539 15.317 0 24.235 2.901 31.573 10.24s10.24 16.256 10.24 31.573c0 0.081 0 0.177 0 0.272 0 6.471-0.762 12.764-2.202 18.794l0.111-0.549c-3.665 9.883-11.322 17.54-20.96 21.125l-0.245 0.080c-8.448 2.517-29.952 2.432-38.059-0.128z" />
<glyph unicode="&#xe91c;" glyph-name="poker" d="M479.598 959.049c-3.291-0.439-14.409-1.536-24.795-2.56-85.504-8.558-177.152-44.544-247.223-97.134-136.558-102.4-212.407-258.999-206.994-427.593 7.336-233.069 169.626-426.258 386.918-480.392l3.519-0.742c36.224-9.115 77.809-14.345 120.616-14.345 100.292 0 193.878 28.709 272.989 78.357l-2.145-1.256c112.093 70.617 193.823 180.699 226.145 310.331l0.744 3.525c10.971 44.837 13.531 67.73 13.531 120.759s-2.56 75.922-13.531 120.759c-51.023 205.231-220.958 359.596-430.799 386.872l-2.573 0.273c-18.213 2.341-84.334 4.535-96.402 3.145zM578.267 881.664c173.814-27.549 312.148-153.774 357.027-318.529l0.715-3.081c9.211-33.568 14.504-72.112 14.504-111.892 0-124.816-52.106-237.461-135.753-317.371l-0.168-0.159c-78.551-75.149-185.281-121.407-302.815-121.407-102.65 0-197.060 35.284-271.761 94.386l0.917-0.7c-11.976 9.74-22.626 19.162-32.88 28.994l0.185-0.176c-58.002 55.798-100.64 127.169-121.194 207.388l-0.662 3.044c-9.655 39.205-11.995 59.904-11.995 105.838s2.341 66.633 11.995 105.838c32.39 127.16 117.092 230.084 229.26 286.303l2.529 1.148c52.224 25.527 96.695 37.815 160.549 44.325 17.262 1.755 77.751-0.658 99.547-3.95zM336.238 632.539c-16.457-5.339-31.89-19.895-36.791-34.597-3.95-11.849-2.779-31.963 2.414-42.057 5.675-11.044 14.463-19.808 25.201-25.302l0.325-0.151c8.265-4.096 11.776-4.754 24.21-4.754 12.361 0 15.726 0.658 23.040 4.535 11.564 6.464 20.741 15.994 26.6 27.498l0.171 0.369c2.608 6.276 4.123 13.566 4.123 21.209 0 8.175-1.733 15.946-4.851 22.964l0.143-0.361c-5.812 11.849-15.060 21.262-26.436 27.126l-0.334 0.157c-8.485 4.242-29.477 6.071-37.815 3.365zM654.921 631.515c-16.852-6.776-29.609-20.661-34.71-37.839l-0.106-0.415c-6.949-23.845 5.339-50.322 29.257-63.049 7.314-3.877 10.679-4.535 23.040-4.535 12.434 0 15.945 0.658 24.21 4.754 11.067 5.702 19.883 14.448 25.518 25.132l0.155 0.322c3.218 6.144 3.877 9.947 3.877 23.552 0 13.678-0.585 17.408-3.95 23.845-5.767 10.761-14.316 19.381-24.697 25.075l-0.318 0.16c-10.533 5.413-31.963 6.949-42.277 2.999zM238.080 297.984c-13.385-6.144-18.066-14.702-18.139-33.134 0-16.384 4.901-25.893 16.457-31.817l8.411-4.315h534.382l8.338 4.315c11.703 5.998 16.311 14.921 16.311 31.671 0 18.871-4.389 27.063-17.92 33.28-6.51 3.072-17.847 3.145-273.92 3.145s-267.41-0.073-273.92-3.145z" />
<glyph unicode="&#xe91d;" glyph-name="location" d="M485.547 905.429c-49.707-3.285-94.677-15.915-141.568-39.851-108.928-55.637-182.528-159.403-201.771-284.459-3.627-23.467-3.968-80.853-0.725-110.080 16.469-146.731 79.232-282.709 174.72-378.581 20.613-21.333 43.372-40.351 68.002-56.785l1.502-0.943c21.76-14.592 61.056-34.048 78.507-38.827 14.315-3.971 30.753-6.252 47.724-6.252 6.182 0 12.293 0.303 18.32 0.894l-0.763-0.061c24.789 2.688 39.68 7.253 66.987 20.565 40.875 19.925 74.197 44.245 111.019 81.024 95.36 95.36 159.531 234.667 175.019 379.819 3.243 30.507 2.859 85.803-0.768 109.227-19.627 126.976-94.123 230.656-205.696 286.379-47.652 24.537-103.988 38.921-163.684 38.921-9.439 0-18.795-0.36-28.053-1.066l1.23 0.075zM551.467 839.765c114.944-15.317 211.499-94.336 251.435-205.739 16.341-45.525 21.504-97.749 15.488-156.16-18.261-176.768-120.277-344.832-248.192-408.747-41.387-20.693-75.179-20.693-116.395-0.085-116.053 58.112-212.992 204.331-242.133 365.312-11.435 63.019-11.179 123.349 0.768 170.667 31.317 124.416 134.016 217.643 258.603 234.667 12.183 1.443 26.294 2.267 40.598 2.267 14.032 0 27.878-0.792 41.498-2.335l-1.669 0.154zM494.72 691.968c-19.627-2.133-32.981-6.059-51.84-15.232-45.227-21.931-74.24-58.027-86.613-107.563-2.401-10.773-3.777-23.146-3.777-35.84s1.376-25.067 3.986-36.978l-0.209 1.138c7.808-31.275 21.035-54.912 43.008-76.885 31.147-31.147 68.523-46.592 112.725-46.592s81.579 15.445 112.725 46.592c31.147 31.147 46.592 68.523 46.592 112.725 0 67.797-39.509 124.757-104.149 149.973-18.816 7.381-49.963 11.093-72.448 8.661zM535.723 626.261c16.128-3.797 30.165-11.989 43.691-25.515 19.371-19.371 28.117-40.32 28.117-67.413s-8.747-48.043-28.117-67.413c-19.456-19.456-40.277-28.16-67.413-28.16s-47.957 8.704-67.413 28.16c-19.371 19.371-28.117 40.32-28.117 67.413s8.747 48.043 28.117 67.413c13.227 13.227 27.563 21.717 42.88 25.472 7.286 1.54 15.657 2.422 24.234 2.422 8.501 0 16.8-0.866 24.813-2.515l-0.791 0.136z" />
<glyph unicode="&#xe91e;" glyph-name="basket" d="M374.912 862.763c-11.819-3.755-15.275-8.747-59.605-85.717-23.979-41.6-44.373-77.227-45.397-79.189-1.579-3.115-3.925-3.755-17.664-4.779-20.096-1.493-33.195-4.864-48.213-12.373-38.95-19.488-65.224-59.080-65.224-104.809 0-31.784 12.693-60.604 33.288-81.666l-0.021 0.022 9.856-10.197 14.080-97.493c14.464-99.84 30.507-183.979 39.424-206.507 8.619-21.675 23.467-41.429 41.472-55.125 27.904-21.163 47.829-26.539 124.16-33.536 88.917-8.192 175.275-6.528 268.117 5.12 37.803 4.736 54.955 11.008 78.037 28.501 22.499 17.775 38.927 42.349 46.221 70.595l0.2 0.914c11.136 44.587 22.869 109.483 35.115 194.859l13.312 92.672 9.856 10.197c20.556 21.043 33.237 49.857 33.237 81.632 0 45.725-26.26 85.316-64.521 104.515l-0.674 0.306c-14.976 7.467-28.117 10.88-48 12.373l-15.701 1.152-17.195 30.080c-80.64 141.013-78.891 138.453-97.109 139.776-15.872 1.152-27.989-6.699-32.768-21.291-4.309-13.013-2.517-17.152 36.395-84.565l36.693-63.616-85.12-0.427c-46.848-0.256-123.477-0.256-170.283 0l-85.12 0.427 36.864 63.957c35.925 62.251 36.907 64.213 36.907 73.387 0.023 0.429 0.036 0.931 0.036 1.435 0 10.344-5.437 19.418-13.61 24.52l-0.122 0.071c-7.381 5.205-19.115 7.253-26.923 4.779zM790.912 623.915c10.709-5.248 19.755-14.293 25.003-25.003 5.973-12.117 5.931-33.749-0.043-45.909-6.080-11.91-15.957-21.152-28.009-26.273l-0.365-0.138c-9.344-3.499-10.923-3.499-275.499-3.499s-266.155 0-275.499 3.499c-12.409 5.25-22.276 14.496-28.185 26.096l-0.146 0.315c-4.907 10.069-6.485 27.947-3.371 37.76 5.163 16.171 18.091 29.781 33.749 35.584 5.291 1.963 50.475 2.304 275.157 2.005l268.8-0.299 8.405-4.139zM773.12 456.747c0-0.811-5.376-37.845-11.904-82.347-13.141-89.088-27.392-161.024-35.072-176.683-5.973-12.16-18.133-23.979-30.805-29.909-10.965-5.12-34.304-8.832-86.912-13.696-32.213-2.987-160.64-2.987-192.853 0-52.608 4.864-75.947 8.576-86.912 13.696-13.274 6.58-23.864 16.882-30.625 29.539l-0.181 0.371c-7.68 15.659-21.931 87.595-35.072 176.683 2.213-23.549-1.97 4.542-6.027 32.674l-5.877 49.673c0 0.853 114.773 1.493 261.12 1.493s261.12-0.64 261.12-1.493zM418.603 393.472c-8.68-2.824-15.791-8.455-20.431-15.802l-0.091-0.155c-2.603-4.779-3.072-11.605-3.499-53.547-0.341-30.848 0.128-50.56 1.323-54.955 3.714-13.656 16.003-23.533 30.598-23.533 8.831 0 16.818 3.616 22.561 9.449l0.004 0.004c9.6 9.643 10.283 14.549 9.685 69.035-0.469 44.843-0.725 48.469-4.011 54.016-6.185 9.788-16.947 16.193-29.205 16.193-2.455 0-4.849-0.257-7.159-0.745l0.225 0.040zM589.269 393.472c-8.68-2.824-15.791-8.455-20.431-15.802l-0.091-0.155c-2.603-4.779-3.072-11.605-3.499-53.547-0.341-30.848 0.128-50.56 1.323-54.955 3.714-13.656 16.003-23.533 30.598-23.533 8.831 0 16.818 3.616 22.561 9.449l0.004 0.004c9.6 9.643 10.283 14.549 9.685 69.035-0.469 44.843-0.725 48.469-4.011 54.016-6.185 9.788-16.947 16.193-29.205 16.193-2.455 0-4.849-0.257-7.159-0.745l0.225 0.040z" />
<glyph unicode="&#xe91f;" glyph-name="dislike" d="M142.507 872.277c-27.686-7.19-48.945-28.875-55.407-56.273l-0.103-0.516c-1.152-5.461-1.579-87.424-1.28-244.608l0.469-236.373 3.968-9.301c8.277-19.541 23.637-34.944 42.965-43.008 8.789-3.669 12.075-3.968 53.376-4.523 27.477-0.384 47.275 0.085 52.608 1.237 29.043 6.801 51.458 29.344 57.97 57.937l0.099 0.517c0.694 3.82 1.478 7.022 2.428 10.152l-0.166-0.638c1.195 1.408 21.931-5.76 33.792-11.733 37.931-19.072 66.603-46.379 83.968-80.043 16.768-32.427 21.376-55.808 21.461-108.331 0-24.96 0.768-39.467 2.517-47.744 7.765-36.523 34.261-64.597 69.589-73.685 27.733-7.168 92.416 4.395 121.856 21.76 12.587 7.424 32.171 27.008 39.595 39.552 20.949 35.541 26.155 90.539 15.957 168.917l-4.821 37.12 46.165 0.043c72.277 0.085 97.237 3.627 126.379 17.792 38.912 18.901 60.928 50.773 72.789 105.429 2.688 12.245 3.669 24.747 4.395 55.381 1.237 53.845-1.707 87.509-16.768 193.408-9.557 67.413-17.067 97.835-31.317 127.189-23.253 47.829-62.891 71.467-133.205 79.317-26.709 3.029-88.661 3.968-121.173 1.877-68.309-4.352-120.405-13.739-200.235-36.139-70.059-19.669-97.536-26.069-126.080-29.355-5.291-0.597-5.547-0.384-7.253 7.723-6.763 28.681-29.023 50.814-57.258 57.288l-0.513 0.099c-12.459 2.645-85.632 2.261-96.768-0.469zM231.765 807.765c1.579-1.579 2.048-55.381 2.048-231.893 0-211.712-0.213-230.059-2.816-232.192-2.219-1.835-10.837-2.347-38.997-2.347s-36.779 0.512-38.997 2.347c-2.603 2.133-2.816 20.48-2.816 232.192 0 176.512 0.469 230.315 2.048 231.893 2.901 2.901 76.629 2.901 79.531 0zM755.2 806.528c61.867-9.856 77.653-29.653 92.117-115.328 5.675-33.877 15.488-107.776 18.645-140.8 7.253-75.52 4.181-123.264-9.899-152.747-9.131-19.2-22.016-29.568-44.928-36.139-8.192-2.347-22.101-2.987-82.389-3.84l-72.533-0.981-9.771-4.779c-12.033-6.062-21.28-16.18-26.073-28.521l-0.124-0.364c-3.541-10.667-2.859-24.235 3.669-71.296 3.541-25.344 4.651-40.405 4.736-63.147 0.213-74.069-15.275-92.843-82.859-100.523-21.717-2.475-31.915 1.451-38.741 14.933-2.773 5.419-3.285 11.947-4.053 49.749-0.939 45.653-2.773 60.629-10.581 87.467-15.019 51.883-47.317 96.768-93.355 129.792-30.208 21.717-74.027 40.405-94.848 40.448h-5.547v332.331l17.493 1.963c31.064 4.137 58.501 9.96 85.148 17.648l-4.081-1.008c80.981 22.443 104.832 28.629 130.773 33.877 24.844 5.201 56.38 9.944 88.378 13.119l3.996 0.321c17.323 1.365 123.264-0.341 134.827-2.176z" />
<glyph unicode="&#xe920;" glyph-name="like" d="M509.653 870.272c-24.491-5.973-49.109-25.984-59.947-48.811-9.216-19.413-11.008-31.189-11.051-72.235-0.043-23.808-0.939-41.216-2.645-51.925-8.96-55.083-40.533-100.395-90.88-130.261-13.397-7.979-30.165-15.104-40.661-17.365-5.291-1.152-5.291-1.109-7.211 8.32-6.236 29.347-28.765 52.134-57.475 58.655l-0.509 0.097c-11.861 2.517-82.688 2.517-94.549 0-28.704-6.558-50.938-28.636-57.624-56.74l-0.104-0.519c-1.152-5.461-1.579-87.424-1.28-244.608l0.469-236.373 3.968-9.387c8.374-19.438 23.581-34.604 42.525-42.722l0.525-0.2c8.704-3.669 12.075-3.968 53.291-4.523 27.477-0.384 47.275 0.085 52.608 1.237 27.648 5.931 51.584 29.312 57.643 56.363 0.556 3.092 1.49 5.854 2.769 8.413l-0.081-0.179c1.579 1.579 30.080-2.432 51.157-7.253 10.283-2.347 40.619-10.411 67.413-17.92 107.179-30.037 158.848-38.656 242.475-40.491 82.901-1.792 129.493 4.565 167.211 22.827 13.739 6.656 18.475 10.155 31.787 23.467 14.037 14.037 16.64 17.664 25.131 35.2 14.635 30.080 22.059 60.032 31.701 127.915 15.061 105.899 18.005 139.563 16.768 193.408-0.725 30.635-1.707 43.136-4.395 55.381-11.861 54.656-33.877 86.528-72.789 105.429-28.288 13.739-35.328 14.805-108.373 15.957-62.677 1.024-64 1.109-63.616 4.437l4.864 39.253c18.773 149.76-19.072 213.376-134.443 226.005-21.291 2.347-32.213 2.133-44.672-0.853zM571.733 803.797c44.8-10.069 57.088-30.891 56.917-96.384 0.001-0.27 0.001-0.59 0.001-0.909 0-21.967-1.722-43.531-5.039-64.566l0.302 2.328c-6.528-47.061-7.211-60.629-3.669-71.296 3.84-11.52 14.208-22.997 26.197-28.885l9.771-4.779 72.533-1.024c59.904-0.853 74.24-1.493 82.389-3.84 37.632-10.709 52.48-34.645 57.685-93.269 3.072-34.816-0.171-83.115-11.307-166.4-18.389-137.984-28.672-163.584-71.723-178.389-36.096-12.416-130.859-14.763-203.989-4.992-45.867 6.101-77.739 13.269-152.448 34.261-57.643 16.213-87.424 22.699-120.875 26.283l-9.813 1.067 0.427 165.76 0.427 165.803 12.8 2.005c17.323 2.688 31.573 7.765 52.907 18.773 63.189 32.555 108.587 86.272 127.189 150.443 7.851 26.923 9.643 41.771 10.581 87.723 0.853 40.661 1.152 44.245 4.565 50.304 2.544 4.184 5.747 7.699 9.504 10.513l0.096 0.069c5.589 3.84 6.997 4.011 23.851 3.157 9.856-0.469 23.68-2.176 30.72-3.755zM231.765 551.765c1.579-1.579 2.048-55.381 2.048-231.893 0-211.712-0.213-230.059-2.816-232.192-2.219-1.835-10.837-2.347-38.997-2.347s-36.779 0.512-38.997 2.347c-2.603 2.133-2.816 20.48-2.816 232.192 0 176.512 0.469 230.315 2.048 231.893 2.901 2.901 76.629 2.901 79.531 0z" />
<glyph unicode="&#xe921;" glyph-name="msg" d="M335.36 905.259c-83.584-2.56-127.573-12.032-165.675-35.627-46.464-28.8-80.853-70.272-97.621-117.888-16.341-46.336-20.053-103.083-18.645-284.928 0.981-124.075 1.877-139.221 10.496-173.099 4.693-18.56 18.56-49.024 30.037-66.133 23.871-35.571 55.783-63.998 93.241-83.109l1.393-0.645c35.243-17.664 60.501-22.699 126.293-25.259 25.344-0.981 51.456-2.475 58.027-3.328 10.923-1.365 12.459-2.091 17.92-8.192 3.285-3.669 15.957-23.509 28.16-44.075 31.019-52.224 43.392-64.128 74.539-71.467 13.653-3.243 23.296-3.243 36.949 0 31.147 7.339 43.52 19.243 74.539 71.467 12.203 20.565 24.875 40.405 28.16 44.117 5.589 6.272 6.827 6.784 18.773 8.192 7.040 0.853 33.152 2.347 58.027 3.285 64.896 2.56 90.368 7.68 125.44 25.259 70.699 35.371 119.893 102.784 130.432 178.731 4.352 31.275 5.632 85.632 4.693 204.8-0.512 66.645-1.749 130.389-2.773 141.653-3.883 43.691-13.184 81.835-26.112 107.52-23.723 47.104-72.277 91.392-119.808 109.269-32.555 12.245-68.907 17.28-140.885 19.584-57.771 1.835-284.715 1.749-345.6-0.128zM708.267 840.448c52.651-3.029 76.459-7.595 101.547-19.584 40.917-19.584 75.648-61.909 86.016-104.917 8.832-36.736 9.557-52.736 9.557-212.48 0-156.117-0.469-167.68-7.851-195.285-7.211-26.88-29.952-62.379-52.096-81.28-15.189-13.013-35.669-25.813-50.261-31.445-25.003-9.643-38.827-11.52-99.84-13.653-55.339-1.963-69.077-4.053-86.187-13.013-18.432-9.728-29.696-23.339-56.917-68.907-12.715-21.291-24.747-40.192-26.709-41.984-5.163-4.651-21.931-4.651-27.093 0.043-2.048 1.877-12.587 18.389-23.467 36.693-30.635 51.712-41.429 64.811-61.995 75.179-15.701 7.936-30.933 10.112-84.309 11.989-61.013 2.133-74.837 4.011-99.84 13.653-14.592 5.632-35.072 18.432-50.261 31.445-22.144 18.901-44.8 54.272-52.139 81.28-6.869 25.344-7.381 36.053-8.192 169.685-1.109 191.403 1.707 227.755 20.907 267.947 14.507 30.293 44.544 60.373 75.051 75.093 23.595 11.392 50.048 16.725 96.427 19.456 34.304 2.048 362.709 2.133 397.653 0.085zM333.269 606.805c-12.134-3.414-21.277-13.356-23.48-25.701l-0.029-0.197c-2.688-14.293 8.107-31.531 22.229-35.413 9.557-2.688 350.464-2.688 360.021 0 9.045 2.475 18.816 12.501 21.333 21.803 3.797 14.123-1.28 27.221-13.824 35.499l-7.211 4.779-176.768 0.256c-97.237 0.171-179.243-0.299-182.272-1.024zM328.533 455.808c-10.24-4.565-19.669-18.773-19.584-29.525s10.539-25.429 20.992-29.355c3.2-1.237 45.269-1.835 128.853-1.792 116.693 0.043 124.416 0.213 130.859 3.157 7.217 2.85 12.751 8.622 15.22 15.817l0.055 0.183c1.597 3.65 2.526 7.903 2.526 12.373s-0.929 8.723-2.604 12.577l0.079-0.204c-2.524 7.378-8.058 13.15-15.099 15.938l-0.176 0.062c-6.443 2.944-14.080 3.115-131.413 3.115-100.352-0.043-125.568-0.512-129.707-2.347z" />
<glyph unicode="&#xe922;" glyph-name="star-fill" d="M498.091 872.405c-27.563-10.325-46.165-34.133-96.299-123.179-40.277-71.637-44.928-79.36-53.419-88.405-13.44-14.336-18.603-16.213-88.107-31.872-83.243-18.773-110.549-26.581-135.083-38.613-32.597-16-45.867-41.259-37.12-70.784 8.235-27.605 26.539-53.163 97.067-135.552 38.699-45.184 46.336-55.637 50.645-69.589 4.309-13.696 4.053-21.675-2.901-93.397-6.784-69.973-9.088-123.819-6.101-142.891 3.2-20.395 7.936-30.805 18.773-41.472 6.955-6.827 12.117-10.24 18.773-12.373 26.923-8.661 56.619 0.299 162.773 48.981 62.251 28.544 70.699 31.701 84.907 31.701s22.656-3.157 84.907-31.701c106.155-48.683 135.851-57.643 162.773-48.981 6.656 2.133 11.819 5.547 18.773 12.373 10.837 10.667 15.573 21.077 18.773 41.472 2.987 19.115 0.683 72.96-6.101 142.891-1.979 16.86-4.138 41.717-5.78 66.716l-0.279 5.306c0 25.685 5.12 34.176 57.301 95.232 68.864 80.555 85.376 103.723 93.568 131.285 8.747 29.525-4.523 54.784-37.12 70.784-24.533 12.032-51.84 19.84-135.083 38.613-69.504 15.659-74.667 17.536-88.107 31.872-8.491 9.088-13.227 16.939-53.419 88.405-44.501 79.147-65.963 108.288-87.979 119.467-11.136 5.632-26.709 7.211-36.139 3.712z" />
<glyph unicode="&#xe923;" glyph-name="heart-fill" d="M320.33 833.661c-103.551-9.585-192-77.713-225.374-173.592-11.377-32.685-13.9-48.361-13.805-85.776 0.071-27.899 0.707-36.177 3.938-51.2 12.026-55.927 40.759-114.318 84.993-172.728 66.925-88.372 187.576-195.859 304.851-271.589 27.645-17.851 34.508-20.23 46.474-16.107 16.068 5.535 112.463 74.014 160.406 113.951 70.856 59.024 131.88 120.63 172.105 173.745 43.924 58.001 73.166 117.437 84.98 172.728 3.192 14.942 3.846 23.451 3.932 51.2 0.116 37.42-2.398 53.058-13.786 85.776-27.473 78.928-93.099 140.317-175.53 164.198-49.027 14.204-109.533 13.196-156.788-2.611-27.537-9.212-66.829-30.12-80.886-43.041l-3.84-3.53-3.84 3.53c-14.057 12.921-53.349 33.829-80.886 43.041-29.471 9.858-74.966 14.966-106.944 12.005z" />
<glyph unicode="&#xe924;" glyph-name="heart-outline" d="M320.33 833.661c-103.551-9.585-192-77.713-225.374-173.592-11.377-32.685-13.9-48.361-13.805-85.776 0.071-27.899 0.707-36.177 3.938-51.2 12.026-55.927 40.759-114.318 84.993-172.728 66.925-88.372 187.576-195.859 304.851-271.589 27.645-17.851 34.508-20.23 46.474-16.107 16.068 5.535 112.463 74.014 160.406 113.951 70.856 59.024 131.88 120.63 172.105 173.745 43.924 58.001 73.166 117.437 84.98 172.728 3.192 14.942 3.846 23.451 3.932 51.2 0.116 37.42-2.398 53.058-13.786 85.776-27.473 78.928-93.099 140.317-175.53 164.198-49.027 14.204-109.533 13.196-156.788-2.611-27.537-9.212-66.829-30.12-80.886-43.041l-3.84-3.53-3.84 3.53c-14.057 12.921-53.349 33.829-80.886 43.041-29.471 9.858-74.966 14.966-106.944 12.005zM391.056 752.922c48.084-12.433 90.784-43.416 113.835-82.596 3.44-5.849 6.64-10.634 7.109-10.634s3.669 4.785 7.109 10.634c17.773 30.209 49.233 57.222 84.822 72.831 40.709 17.854 94.082 20.165 136.545 5.91 28.745-9.649 55.207-26.607 76.502-49.025 21.194-22.311 37.268-50.515 44.92-78.815 5.252-19.422 6.543-59.069 2.614-80.214-9.112-49.026-36.593-102.040-82.642-159.421-57.91-72.16-164.253-166.333-257.338-227.885-14.412-9.53-10.177-10.774-43.902 12.903-93.655 65.754-184.081 147.256-238.521 214.982-46.151 57.414-73.273 109.812-82.631 159.636-2.19 11.664-2.64 21.029-1.956 40.745 1.039 29.958 4.403 44.708 15.617 68.476 26.336 55.823 77.377 94.921 137.797 105.556 21.591 3.8 59.078 2.357 80.12-3.083z" />
<glyph unicode="&#xe925;" glyph-name="setting-outline" d="M271.275 829.397c-48.128-7.509-94.507-38.955-118.997-80.725-15.115-24.93-24.060-55.058-24.060-87.276 0-71.241 43.737-132.266 105.825-157.688l1.136-0.412c18.786-7.813 40.607-12.351 63.488-12.351s44.702 4.538 64.613 12.763l-1.125-0.411c43.703 17.64 77.603 51.831 94.453 94.605l0.395 1.139c2.859 7.509 5.632 14.976 6.144 16.64 0.896 2.816 11.947 2.987 200.277 2.987 128.256 0 201.515 0.64 205.483 1.749 9.493 2.619 17.237 8.778 21.88 16.932l0.093 0.177c3.712 6.656 4.267 9.643 4.224 23.808-0.043 18.475-3.456 27.52-12.843 34.176-12.203 8.704-6.699 8.491-219.563 8.491-187.648 0-198.656 0.171-199.552 2.987-3.201 9.396-5.282 14.905-7.448 20.372l1.304-3.732c-21.248 55.808-72.661 96.853-132.523 105.899-7.884 1.385-16.962 2.177-26.225 2.177-9.532 0-18.868-0.838-27.939-2.446l0.959 0.141zM320.981 743.552c32.053-9.17 56.102-35.688 61.542-68.492l0.068-0.5c4.267-27.861-4.011-53.035-24.064-73.131-17.109-17.195-36.523-25.429-59.861-25.429-21.973 0-41.045 7.595-57.472 22.827-56.747 52.736-19.797 147.627 57.472 147.627 6.101 0 16.128-1.323 22.315-2.901zM697.941 402.731c-64.299-10.027-117.803-57.771-137.173-122.411-0.811-2.816-10.795-2.987-178.133-2.987-189.867 0-186.112 0.171-198.229-8.491-9.472-6.741-12.885-15.744-12.885-34.176 0-14.123 0.555-17.195 4.267-23.808 4.693-8.405 12.544-14.507 21.973-17.109 3.968-1.109 70.187-1.749 184.149-1.749 168.021 0 178.048-0.171 178.859-2.987 15.659-52.139 52.011-92.587 101.077-112.384 18.816-7.796 40.667-12.323 63.576-12.323 71.177 0 132.146 43.702 157.538 105.738l0.411 1.135c7.818 18.775 12.358 40.585 12.358 63.455 0 22.831-4.525 44.604-12.726 64.473l0.411-1.124c-22.511 55.302-71.795 95.49-131.313 104.752l-0.954 0.122c-7.884 1.385-16.962 2.177-26.225 2.177-9.532 0-18.868-0.838-27.939-2.446l0.959 0.141zM747.648 316.885c32.053-9.17 56.102-35.688 61.542-68.492l0.068-0.5c4.267-27.861-4.011-53.035-24.064-73.131-17.109-17.195-36.523-25.429-59.861-25.429-21.973 0-41.045 7.595-57.472 22.827-56.747 52.736-19.797 147.627 57.472 147.627 6.101 0 16.128-1.323 22.315-2.901z" />
<glyph unicode="&#xe926;" glyph-name="up-thin" d="M500.908 661.084c-5.316-2.88-326.736-324.288-329.496-329.48-8.864-16.668 6.464-37.652 25.296-34.632 6.864 1.104 15.192 9.104 161.268 155.012l154.032 153.848 154.024-153.9c138.528-138.416 154.68-154.016 160.584-155.080 13.46-2.432 24.7 4.48 28.26 17.372 3.768 13.648 10.288 6.456-164.24 181.248-89.332 89.472-164.496 163.776-167.032 165.12-5.404 2.872-17.816 3.14-22.696 0.492z" />
<glyph unicode="&#xe927;" glyph-name="bottom-thin" d="M186.384 598.172c-14.052-3.224-21.856-20.82-14.976-33.776 1.344-2.536 75.648-77.7 165.12-167.032 135.976-135.772 163.724-162.704 169.072-164.132 14.436-3.844 6.16-11.312 181.872 164.132 89.472 89.332 163.776 164.496 165.12 167.032 7.012 13.204-0.892 30.504-15.432 33.78-14.28 3.224-7.512 9.32-171.992-154.996l-153.176-153.032-152.316 152.136c-83.776 83.676-153.852 152.876-155.728 153.784-5.692 2.744-11.652 3.46-17.564 2.104z" />
<glyph unicode="&#xe928;" glyph-name="twitter-fill" d="M676.672 829.312c-79.040-12.16-146.112-70.208-168.768-146.112-1.665-5.099-3.869-13.293-5.828-21.581l-0.572-2.867c-2.944-13.504-2.944-60.032 0-73.088 0.858-2.637 1.352-5.67 1.352-8.82 0-0.725-0.026-1.444-0.078-2.156l0.006 0.095c-1.472-1.536-43.392 2.624-66.624 6.592-138.56 23.424-261.12 92.48-355.328 200.256l-10.432 11.904-5.12-10.24c-14.139-27.805-22.421-60.632-22.421-95.395 0-22.579 3.495-44.342 9.972-64.778l-0.415 1.517c13.295-40.534 37.13-74.576 68.286-99.983l0.386-0.305c7.104-5.568 13.248-10.56 13.76-11.008 1.28-1.344-19.84 1.216-33.728 3.968-18.41 3.92-34.643 9.524-49.906 16.829l1.33-0.573c-3.040 1.681-6.65 3.321-10.392 4.688l-0.552 0.176c-2.624 0 1.408-35.008 6.144-53.952 6.016-23.808 20.48-54.464 34.56-73.152 27.3-36.129 65.161-62.985 108.96-76.093l1.504-0.387c7.808-2.304 13.44-4.608 12.544-5.184-8.064-4.928-61.44-8-81.6-4.608-2.496 0.511-5.521 0.92-8.599 1.139l-0.233 0.013c-0.128-0.128 2.624-7.36 6.208-16.064 29.184-70.656 99.648-122.56 173.76-127.872 7.744-0.576 14.080-1.536 14.080-2.176s-5.952-5.376-13.248-10.496c-56.984-40.943-126.209-68.45-201.256-76.508l-1.88-0.164c-12.184-0.977-26.379-1.534-40.705-1.534-5.041 0-10.065 0.069-15.073 0.206l-35.039 0.752 14.080-8.32c53.692-32.133 116.066-57.002 182.409-71.153l4.023-0.719c92.096-19.2 195.968-15.488 288.448 10.304 38.773 10.932 72.21 24.189 103.899 40.379l-3.163-1.467c158.592 78.080 274.624 230.592 314.688 413.632 7.576 33.901 12.377 73.174 13.299 113.405l0.013 0.707 0.96 36.224 13.824 10.624c20.096 15.36 57.856 54.016 74.048 75.648 7.744 10.368 14.016 19.392 14.016 20.16 0 0.704-2.176 0.192-4.8-1.152-15.424-8-64.512-22.4-93.312-27.392-21.312-3.648-21.504-3.584-9.344 4.608 25.024 16.704 53.696 49.344 67.584 76.8 6.912 13.696 12.992 28.736 12.032 29.696-7.111-2.574-13.19-5.486-18.926-8.914l0.494 0.274c-29.504-15.616-64-28.416-98.56-36.672l-14.336-3.456-10.432 9.536c-37.839 35.048-88.665 56.549-144.513 56.549-11.111 0-22.024-0.851-32.676-2.492l1.189 0.151z" />
<glyph unicode="&#xe929;" glyph-name="telegram-fill" d="M891.733 804.821c-12.672-3.456-769.323-296.363-779.947-301.952-36.779-19.243-34.859-42.453 4.651-55.595 30.379-10.069 190.165-59.605 192.469-59.648 1.408-0.043 102.784 63.189 225.28 140.501-53.467-29.026 21.326 18.526 96.329 65.776l132.962 78.181c9.131 4.736 21.845 5.845 24.917 2.133 2.005-2.389 1.877-3.456-1.024-7.424-1.877-2.517-83.883-77.312-182.272-166.187-117.259-105.19-176.533-158.965-235.71-212.844l53.609 48.108c-2.901-2.901-3.797-11.947-9.088-91.904-4.097-68.542-6.535-102.928-9.126-137.271l2.3 37.943-0.981-10.667h6.315c12.544 0 19.84 5.717 73.728 58.069 28.8 27.904 52.949 50.944 53.76 51.2 0.811 0.213 45.483-32.128 99.328-71.936 99.925-73.856 108.117-79.147 125.44-81.195 17.451-2.048 33.877 11.435 40.149 33.024 1.451 4.864 32.171 148.096 68.352 318.336 62.72 295.253 65.707 310.144 65.109 324.267-0.555 12.8-1.323 15.872-5.76 23.040-6.859 10.391-18.484 17.153-31.688 17.153-3.232 0-6.369-0.405-9.363-1.167l0.262 0.056z" />
<glyph unicode="&#xe92a;" glyph-name="send" d="M244.523 803.243c-51.541-13.141-89.216-60.288-89.216-111.701 0-6.784 5.76-64.341 12.843-127.915l12.885-115.627-12.885-115.627c-7.083-63.573-12.843-121.131-12.843-127.915 0-49.237 35.712-96.043 84.48-110.805 16.043-4.821 50.859-4.437 66.389 0.768 14.891 4.949 527.147 247.509 539.52 255.403 24.064 15.36 39.595 36.181 48.512 64.896 15.488 50.091-6.272 106.709-51.115 132.992-14.763 8.619-521.685 248.491-535.040 253.184-16.512 5.76-45.824 6.827-63.531 2.347zM293.547 737.877c4.224-1.792 122.368-57.6 262.571-123.989 155.008-73.387 257.365-122.752 261.163-126.037 3.456-2.944 8.576-9.472 11.349-14.507 4.651-8.32 5.077-10.539 5.077-25.344s-0.427-17.024-5.077-25.344c-3.222-5.602-7.017-10.417-11.41-14.611l-0.025-0.023c-8.448-7.211-522.923-251.008-535.381-253.696-31.147-6.656-61.995 18.688-61.952 50.944 0.043 9.728 18.944 188.331 21.717 204.715l0.896 5.504 140.331 0.469c137.984 0.469 140.416 0.512 146.987 4.011 9.429 4.907 13.781 13.867 13.739 28.032-0.085 14.293-3.797 22.059-13.227 27.435l-7.211 4.139-280.619 0.981-0.896 5.461c-2.773 16.384-21.675 194.987-21.717 204.715-0.043 37.376 38.656 62.165 73.685 47.147z" />
<glyph unicode="&#xe92b;" glyph-name="reply" d="M369.579 727.040c-5.291-1.877-29.312-24.917-111.531-107.008-70.955-70.827-105.813-106.837-107.989-111.445-3.968-8.491-4.309-25.771-0.683-34.603 3.627-8.789 207.061-212.736 216.704-217.259 8.491-4.011 25.813-4.309 34.603-0.64 10.729 5.25 19.032 14.078 23.479 24.898l0.116 0.318c1.28 4.017 2.018 8.638 2.018 13.431 0 6.756-1.466 13.17-4.098 18.94l0.117-0.286c-1.579 3.157-31.787 34.773-67.072 70.229l-64.213 64.469 207.36-0.512c192.64-0.427 208.043-0.683 217.557-3.499 43.889-13.003 77.746-46.889 90.47-89.854l0.239-0.94c2.517-8.789 3.072-21.888 3.883-92.16 0.939-79.744 1.067-82.091 4.651-88.747 8.235-15.275 20.053-22.101 38.144-22.101 18.347 0 30.123 6.997 38.613 22.955 2.987 5.589 3.2 11.307 3.2 90.453 0 91.179-0.256 94.549-9.515 123.136-10.624 32.853-28.501 60.757-55.637 86.912-34.432 33.195-75.136 52.651-120.875 57.856-9.557 1.067-91.264 1.707-216.704 1.749h-201.344l63.445 63.573c69.803 69.973 70.357 70.699 70.357 90.027 0 14.080-3.84 22.741-14.080 31.787-7.115 6.705-16.729 10.826-27.307 10.826-4.996 0-9.777-0.919-14.183-2.598l0.274 0.092z" />
<glyph unicode="&#xe92c;" glyph-name="linkedin-fill" d="M195.413 829.995c-30.763-5.888-58.923-34.176-65.536-65.92-5.931-28.373 2.603-56.32 23.552-77.312 34.005-33.963 85.803-33.963 119.808 0 33.963 34.005 33.963 85.803 0 119.808-20.949 20.907-48.085 29.099-77.824 23.424zM128 320v-256h170.667v512h-170.667v-256zM384 320v-256h170.667v151.552c0 166.229-0.256 162.091 10.283 180.437 5.888 10.283 20.437 24.619 29.952 29.44 33.28 16.981 73.6 9.472 102.101-18.987 7.125-7.083 14.549-16.555 17.664-22.571 10.965-20.992 10.667-15.829 10.667-175.147v-144.725h170.667v162.773c0 138.112-0.384 165.035-2.603 177.92-13.781 80.171-72.661 140.757-153.557 157.952-14.592 3.115-55.083 2.603-70.357-0.853-39.754-8.822-74.022-28.391-100.666-55.482l-0.027-0.028-14.123-14.293v84.011h-170.667v-256z" />
<glyph unicode="&#xe92d;" glyph-name="facebook-fill" d="M563.2 830.87c-47.048-4.602-79.4-15.634-104.432-35.61-26.052-20.788-42.632-56.94-47.392-103.336-0.978-9.514-1.776-39.49-1.776-66.612v-49.312h-90.454v-128h90.454v-384h167.254v384h112.64l0.084 3.84c0.048 2.112 3.35 30.912 7.338 64l7.254 60.16h-127.316l0.008 47.36c0.006 29.288 0.73 49.95 1.894 54.148 2.634 9.488 12.388 18.658 23.744 22.32 7.698 2.484 17.514 3.144 55.846 3.754l46.508 0.742v127.676l-67.84-0.274c-37.312-0.15-70.528-0.536-73.814-0.856z" />
<glyph unicode="&#xe92e;" glyph-name="eye-slash" d="M178.348 828.776c-7.9-3.648-13.512-9.256-16.1-16.088-2.54-6.696-2.272-19.012 0.552-25.544 1.308-3.020 20.124-24.96 41.816-48.76s39.412-43.768 39.376-44.372c-0.032-0.608-8.288-6.616-18.344-13.352-73.488-49.22-143.236-127.184-183.328-204.912-13.432-26.048-13.412-29.48 0.328-56.148 22.932-44.508 61.124-95.82 101.544-136.42 87.296-87.688 190.312-138.32 309.044-151.892 31.488-3.6 88.28-3.608 118.352-0.020 44.472 5.308 87.504 15.98 127.588 31.636l21.18 8.272 46.32-50.968c48.772-53.66 51.808-56.252 65.784-56.172 9.068 0.056 19.628 5.388 25.24 12.744 5.952 7.804 7.652 22.424 3.684 31.648-3.968 9.212-646.432 715.008-655.152 719.732-8.628 4.672-18.616 4.892-27.884 0.616zM465.068 766.060c-22.876-2.392-46.384-6.256-50.192-8.244-6.020-3.148-13.208-10.988-15.408-16.808-4.6-12.176-0.22-29.232 9.464-36.848 8.744-6.88 15.428-7.664 39.324-4.632 62.54 7.944 123.472 4.336 181.916-10.764 27.496-7.104 48.808-15.204 78.948-30 69.612-34.18 132.468-88.668 181.388-157.232 12.676-17.764 32.8-50.656 32.8-53.608 0-2.712-19.74-34.836-32.468-52.832-18.056-25.536-36.272-46.82-60.892-71.14-23.28-23-27.816-29.624-27.816-40.644 0-6.868 3.804-17.048 8.172-21.88 8.132-8.992 25.072-12.252 37.24-7.168 8.336 3.484 52.18 47.968 73.552 74.62 21.88 27.288 47.328 65.628 60.4 91 13.64 26.468 13.632 29.788-0.144 56.52-28.124 54.588-77.94 117.664-126.764 160.516-38.528 33.808-71.368 55.96-115.688 78.028-34.592 17.22-63.812 28.14-98.76 36.904-44.36 11.124-67.428 13.872-121.312 14.436-25.816 0.268-50.008 0.168-53.76-0.224zM328.392 602.704c16.972-18.636 31.14-34.636 31.476-35.556 0.34-0.916-1.664-4.868-4.452-8.78-36.028-50.584-44.396-120.748-21.408-179.452 22.976-58.66 70.816-100.676 133.432-117.18 8.968-2.364 20.908-3.7 38.588-4.32 21.912-0.768 28.16-0.372 43.388 2.776 20.156 4.164 40.316 11.396 56.148 20.144 5.964 3.296 11.396 5.296 12.14 4.468l28.892-31.816c15.144-16.672 27.536-30.588 27.536-30.916 0-0.332-4.416-2.192-9.812-4.14-86.88-31.32-188.952-34.32-279.604-8.216-103.064 29.68-194.756 99.824-261.284 199.884-12.156 18.28-22.74 36.224-22.74 38.548 0 0.92 4.68 9.416 10.396 18.88 41.86 69.304 100.124 129.536 164.556 170.128l13.636 8.588 4.124-4.58c2.268-2.516 18.012-19.824 34.988-38.46zM531.86 634.94c-21.772-7.76-28.816-34.656-13.352-50.98 6.060-6.396 7.932-7.308 25.388-12.368 23.912-6.928 40.104-16.324 57.040-33.092 21.392-21.184 32.66-43.188 37.44-73.092 2.38-14.912 5.904-21.9 14-27.764 17.68-12.804 43.312-4.22 49.096 16.444 5.588 19.96-9.724 70.468-30.752 101.432-24.6 36.228-67.024 66.364-109.228 77.596-18.504 4.924-20.576 5.052-29.632 1.824zM489.74 424.96l82.172-90.452-8.512-3.76c-22.328-9.856-51.452-13.12-74.832-8.384-28.644 5.804-49.776 17.752-70.78 40.016-12.696 13.456-24.868 35.836-29.864 54.9-3.952 15.072-3.932 46.48 0.032 61.44 3.768 14.204 16.148 40.336 18.128 38.256 0.816-0.86 38.464-42.268 83.656-92.016z" />
<glyph unicode="&#xe92f;" glyph-name="eye" d="M475.224 758.548c-102.208-6.892-196.78-44.128-280.664-110.504-22.824-18.060-71.3-67.38-90.104-91.672-28.5-36.808-57.532-83.42-62.74-100.736-1.928-6.4-1.928-8.872 0-15.272 5.212-17.324 34.26-63.956 62.744-100.736 19.516-25.204 67.7-74.076 91.808-93.124 74.696-59.016 157.98-94.324 252.016-106.84 30.248-4.028 97.184-4.028 127.432 0 94.036 12.516 177.32 47.824 252.016 106.84 24.108 19.048 72.292 67.92 91.808 93.124 28.484 36.78 57.532 83.412 62.744 100.736 3.052 10.136 0.856 17.312-12.648 41.3-41.284 73.34-105.292 144.156-171.088 189.284-96.048 65.876-205.532 95.54-323.324 87.6zM550.4 709.968c60.668-3.648 126.632-23.088 180.908-53.32 71.96-40.080 137.192-103.252 183.948-178.152 6.228-9.98 12.68-20.984 14.332-24.452l3.008-6.304-5.468-10.536c-7.832-15.084-30.092-48.072-46.7-69.2-17.040-21.676-61.468-66.708-81.708-82.816-115.8-92.152-260.348-122.956-404.956-86.304-97.864 24.804-189.452 88.316-257.388 178.492-18.224 24.192-44.216 65.704-44.216 70.624 0 4.9 25.952 46.376 44.188 70.624 68.628 91.244 160.908 154.532 261.304 179.204 50.936 12.516 92.1 15.788 152.748 12.14zM488.96 630.396c-78.892-9.856-140.884-68.316-158.128-149.116-2.816-13.208-2.816-53.352 0-66.56 16.488-77.252 70.636-131.4 147.888-147.888 5.632-1.2 20.608-2.184 33.28-2.184s27.648 0.984 33.28 2.184c77.244 16.484 131.54 70.788 147.872 147.888 2.916 13.776 2.884 51.74-0.056 66.56-13.708 69.056-63.628 123.86-130.476 143.232-23.82 6.904-49.24 8.936-73.66 5.884zM546.132 579.148c60.176-15.16 100.96-68.14 100.96-131.148 0-39.816-14.796-73.812-43.544-100.060-26.092-23.816-56.032-35.392-91.548-35.392-62.856 0-115.396 40.82-131.508 102.172-4.964 18.904-4.964 47.656 0 66.56 19.372 73.76 91.7 116.496 165.64 97.868z" />
<glyph unicode="&#xe930;" glyph-name="email-fill" d="M157.013 788.181c-12.74-2.899-23.989-7.641-34.117-14.004l0.453 0.266c-17.92-11.819-31.787-32.171-36.139-53.035-2.645-12.757-2.645-534.059 0-546.816 6.699-32 34.048-59.349 66.048-66.048 12.8-2.645 704.683-2.645 717.483 0 32.888 7.743 58.305 33.16 65.929 65.451l0.119 0.597c2.645 12.757 2.645 534.059 0 546.816-5.888 28.203-26.24 51.413-55.296 62.976l-10.24 4.096-354.987 0.213c-195.243 0.085-356.907-0.128-359.253-0.512zM220.672 672.171c2.987-1.536 69.76-43.008 148.395-92.16l142.933-89.344 142.933 89.344c-16.926-8.067 31.484 22.386 80.067 52.587l68.328 39.573c7.040 3.627 22.869 3.669 30.037 0.043 13.867-6.955 20.523-17.365 20.608-32.213 0.085-12.203-4.565-22.443-13.013-28.672-15.189-11.221-289.877-181.589-298.88-185.344-9.173-3.84-12.885-4.395-30.080-4.395s-20.907 0.555-30.037 4.395c-9.045 3.755-283.861 174.208-298.923 185.344-10.539 7.808-16.043 24.491-12.459 37.803 2.261 8.363 11.221 19.072 19.285 23.040 7.339 3.627 23.808 3.627 30.805 0z" />
<glyph unicode="&#xe931;" glyph-name="comment" d="M106.816 958.208c-43.328-7.296-83.072-39.872-98.176-80.32-9.024-24.128-8.576-0.704-8.576-452.096 0-405.568 0.128-419.2 3.2-425.984 5.047-10.716 15.757-18.001 28.169-18.001 3.005 0 5.91 0.427 8.659 1.224l-0.219-0.054c7.68 1.92 14.080 7.936 105.792 99.456 91.456 91.328 98.304 97.792 109.504 103.040l11.904 5.696 326.016 0.832c262.144 0.768 327.296 1.344 332.8 3.136 19.776 6.528 28.16 10.24 39.104 17.408 22.016 14.464 39.808 35.648 49.088 58.432 10.368 25.536 9.92 11.648 9.92 305.024 0 293.44 0.448 279.488-9.984 305.088-12.446 29.008-34.445 51.938-61.961 65.268l-0.759 0.332c-28.288 13.632 15.232 12.352-434.176 12.672-221.056 0.128-405.696-0.384-410.304-1.152zM922.048 890.56c11.328-5.248 25.92-19.648 31.552-31.040l4.672-9.6v-547.84l-4.608-9.472c-9.541-18.653-27.088-32.045-47.983-35.718l-0.401-0.058c-6.336-1.024-128.832-1.664-325.184-1.664-309.44 0-315.264-0.064-328.384-3.456-33.536-8.576-40.384-13.888-119.040-91.968l-67.84-67.392 0.064 376.256c0.064 356.544 0.256 376.64 3.136 385.024 5.824 16.832 21.504 32.512 38.336 38.336 8.384 2.944 28.416 3.072 408.192 2.688l399.36-0.384 8.128-3.712z" />
<glyph unicode="&#xe932;" glyph-name="code" d="M881.664 701.312c-9.756-3.576-17.648-10.295-22.631-18.908l-0.11-0.206-4.736-8.064-0.469-222.464c-0.299-150.272 0.128-224.555 1.365-229.035 2.56-9.557 11.563-20.437 20.907-25.259 5.789-3.19 12.689-5.067 20.028-5.067 11.665 0 22.221 4.743 29.848 12.405l0.002 0.002c13.696 13.696 12.8-3.499 12.8 243.285 0 246.741 0.896 229.589-12.757 243.243-7.695 7.718-18.338 12.494-30.096 12.494-5.072 0-9.936-0.888-14.445-2.518l0.296 0.093zM152.747 531.328c-14.677-2.816-29.739-11.221-41.984-23.424-33.963-34.005-33.963-85.803 0-119.808 34.005-33.963 85.803-33.963 119.808 0 33.963 34.005 33.963 85.803 0 119.808-20.949 20.907-48.085 29.099-77.824 23.424zM408.747 531.328c-30.763-5.888-58.923-34.176-65.536-65.92-10.88-52.224 30.165-102.741 83.456-102.741 39.253 0 75.435 29.44 83.456 67.925 1.168 5.232 1.837 11.24 1.837 17.405 0 23.501-9.724 44.731-25.367 59.886l-0.022 0.021c-20.949 20.907-48.085 29.099-77.824 23.424zM664.747 531.328c-37.248-7.125-67.413-44.373-67.413-83.328 0-39.253 29.44-75.435 67.925-83.456 52.224-10.88 102.741 30.165 102.741 83.456 0 22.315-8.96 43.392-25.429 59.904-20.949 20.907-48.085 29.099-77.824 23.424z" />
<glyph unicode="&#xe933;" glyph-name="credit-card" d="M537.6 905.259c-14.635-1.621-34.731-8.491-50.005-17.067-29.44-16.597-40.277-26.752-212.992-199.424-92.544-92.544-172.885-173.995-178.56-181.035-48.256-60.245-54.827-108.715-22.315-164.395 14.336-24.619 35.627-47.531 155.733-167.979l121.259-121.643-133.461 0.043c-89.515 0-136.32-0.597-142.080-1.835-11.605-2.517-18.005-9.003-20.736-21.205-4.267-19.115 3.925-35.627 19.797-39.936 4.821-1.323 133.163-1.877 437.76-1.877s432.939 0.555 437.76 1.877c15.872 4.309 24.064 20.821 19.797 39.936-2.731 12.203-9.131 18.688-20.736 21.205-5.845 1.237-63.403 1.835-180.437 1.835h-171.861l160.597 160.853c88.32 88.448 165.931 167.595 172.459 175.787 31.317 39.424 44.331 74.795 39.851 108.373-4.437 33.28-19.157 60.416-54.101 99.712-22.613 25.387-249.856 251.435-265.088 263.637-43.179 34.688-75.819 47.189-112.64 43.136zM573.44 836.693c11.264-5.077 33.024-20.651 47.915-34.176l10.837-9.899-464.085-464.256-12.288 12.928c-15.573 16.384-31.317 39.808-35.328 52.651-6.187 19.627-0.043 39.168 21.163 67.712 13.099 17.579 331.733 337.109 352.085 353.067 15.317 11.947 24.832 17.835 38.485 23.595 12.373 5.205 27.435 4.651 41.216-1.621zM775.040 649.813c99.541-99.968 112.427-114.389 124.16-138.667 5.291-10.965 6.187-14.507 6.187-24.747 0-10.197-0.896-13.824-6.144-24.747-5.428-10.477-11.050-19.414-17.318-27.841l0.38 0.534c-11.179-15.061-303.403-309.803-337.024-339.968-20.651-18.517-40.661-32.085-55.040-37.248-20.48-7.381-38.443-2.091-67.84 19.968-9.984 7.467-49.408 45.397-112.64 108.373l-97.28 96.853 232.107 232.192c127.659 127.659 232.533 232.149 233.045 232.149s44.331-43.563 97.408-96.853zM680.107 427.776c-4.395-2.133-27.52-24.107-65.152-61.909-51.2-51.499-58.453-59.477-59.52-65.237-1.835-9.899 1.749-19.157 10.88-28.245 14.805-14.72 27.008-14.805 44.245-0.299 16.085 13.525 107.264 106.368 110.293 112.256 6.656 13.056 1.28 28.715-13.611 39.68-9.173 6.699-18.261 7.979-27.136 3.755zM513.835 261.888c-8.32-3.797-63.659-57.728-69.931-68.181-4.181-6.997-4.693-18.517-1.152-25.259 3.157-6.016 14.037-16.299 20.949-19.797 13.867-6.955 21.931-2.261 57.941 33.749 16.085 16.085 30.848 31.915 32.853 35.2 9.045 15.061 0.085 35.627-19.456 44.587-8.661 3.968-11.904 3.925-21.205-0.299z" />
<glyph unicode="&#xe934;" glyph-name="add-loaction" d="M463.36 896c-68.584-8.533-128.146-30.33-180.151-65.902-88.795-60.684-141.751-148.87-159.768-266.045-4.218-27.429-4.218-90.331 0-117.76 20.066-130.414 88.6-252.684 206.165-367.811 39.912-39.083 63.878-54.735 104.326-68.169 25.307-8.411 41.74-11.41 68.267-12.434 45.397-1.78 85.797 7.461 125.416 28.623 22.284 11.898 38.693 24.381 62.537 47.616 150.089 146.139 226.133 312.027 212.846 464.335-8.753 100.498-45.080 183.052-108.544 246.662-63.854 64-145.384 101.644-241.859 111.714-21.772 2.267-67.803 1.853-89.234-0.829zM545.28 848.14c63.464-4.194 132.242-30.135 182.613-68.852 57.076-43.886 97.182-105.57 114.956-176.835 37.888-151.918-12.849-304.689-151.991-457.801-40.814-44.934-63.122-63.756-92.672-78.214-25.294-12.756-55.131-20.225-86.713-20.225-47.342 0-90.763 16.785-124.638 44.728l0.334-0.268c-13.8 11.264-51.517 49.859-71.582 73.192-56.734 66.024-97.353 133.193-121.758 201.362-15.563 41.586-24.57 89.641-24.57 139.801 0 5.153 0.095 10.284 0.284 15.39l-0.022-0.738c3.828 105.545 45.251 193.877 118.906 253.562 55.369 44.885 123.416 70.827 198.68 75.752 20.187 1.317 27.014 1.219 58.173-0.853zM498.688 629.467c-10.289-5.071-10.581-6.875-10.581-63.634v-51.273h-50.517c-56.418 0-59.563-0.536-64.561-11.045-3.462-7.339-3.413-18.456 0.098-25.893 5.022-10.557 6.729-10.85 63.707-10.85h51.273v-51.371c0-45.349 0.341-51.931 2.901-56.296 7.973-13.458 34.011-13.458 41.984 0 2.56 4.364 2.901 10.947 2.901 56.296v51.371h51.371c45.349 0 51.931 0.341 56.296 2.901 13.922 8.241 13.312 35.426-0.951 42.203-4.779 2.243-13.726 2.682-56.198 2.682h-50.517v51.371c0 45.349-0.341 51.931-2.901 56.296-5.656 9.557-22.43 13.093-34.304 7.241z" />
</font>
</defs>
</svg>
